<?xml version="1.0" standalone="no"?>
<!DOCTYPE svg PUBLIC "-//W3C//DTD SVG 1.1//EN" "http://www.w3.org/Graphics/SVG/1.1/DTD/svg11.dtd" >
<svg xmlns="http://www.w3.org/2000/svg">
<metadata></metadata>
<defs>
<font id="ubuntu_monobold_italic" horiz-adv-x="1024" >
<font-face units-per-em="2048" ascent="1638" descent="-410" />
<missing-glyph horiz-adv-x="500" />
<glyph unicode="&#xd;" />
<glyph />
<glyph />
<glyph unicode=" " />
<glyph unicode="!" d="M338 129q0 43 15.5 78t41 59.5t59 37.5t68.5 13q66 0 109 -37.5t43 -113.5q0 -41 -15.5 -76t-41 -60.5t-58.5 -40t-70 -14.5q-63 0 -107 39t-44 115zM467 461q6 70 13 130t15.5 117.5t19.5 114t28 117.5l78 328h290l-82 -342q-18 -74 -34.5 -133.5t-35 -112.5t-39 -105.5 t-44.5 -113.5h-209z" />
<glyph unicode="&#x22;" d="M395 815q2 51 5 113.5t9.5 127t15.5 126t21 112.5l21 97h266l-31 -129q-10 -47 -28.5 -103.5t-41 -116t-47 -118t-46.5 -109.5h-144zM799 815q2 51 6 113.5t10 127t14.5 126t20.5 112.5l22 97h265l-29 -129q-10 -47 -28.5 -103.5t-41 -116t-47 -118t-49.5 -109.5h-143z " />
<glyph unicode="#" d="M66 0l124 313h-122l49 205h157l95 234h-195l49 204h228l124 312h205l-125 -312h170l125 312h205l-127 -312h133l-49 -204h-164l-94 -234h201l-49 -205h-234l-127 -313h-205l127 313h-172l-125 -313h-204zM479 518h170l94 234h-170z" />
<glyph unicode="$" d="M96 119l103 188q45 -29 120.5 -57.5t163.5 -28.5q41 0 83 5t76 20.5t54.5 44t20.5 76.5q0 33 -13.5 56t-36 42.5t-52 36t-62.5 33.5q-78 37 -129 75.5t-83 80.5t-45 90t-13 104q0 61 22.5 118.5t68.5 103.5t116.5 79t168.5 43l50 190h211l-50 -194q72 -16 131.5 -39 t96.5 -45l-101 -180q-51 35 -118.5 53t-133.5 18q-84 0 -145 -33.5t-61 -101.5q0 -51 34.5 -88t126.5 -82q51 -27 100.5 -57.5t87.5 -70.5t60.5 -92t22.5 -122q0 -168 -106.5 -258t-280.5 -107l-52 -219h-213l54 222q-96 14 -168 43.5t-109 52.5z" />
<glyph unicode="%" d="M8 0l1061 1268h182l-1058 -1268h-185zM188 864q0 63 16.5 139t52.5 140.5t94.5 108.5t142.5 44q78 0 128 -56t50 -148q0 -63 -16.5 -138t-52.5 -140.5t-94 -110t-142 -44.5q-78 0 -128.5 56.5t-50.5 148.5zM346 893q0 -47 15.5 -61.5t33.5 -14.5q31 0 52.5 30t37 69.5 t22.5 81.5t7 67q0 45 -16.5 59.5t-32.5 14.5q-31 0 -52.5 -30t-37 -70t-22.5 -80.5t-7 -65.5zM590 176q0 63 16.5 138t52 139.5t94 108.5t142.5 44q78 0 127 -56t49 -149q0 -63 -16.5 -138t-52 -139.5t-94 -108.5t-142.5 -44q-78 0 -127 56.5t-49 148.5zM745 203 q0 -45 16.5 -59.5t33.5 -14.5q31 0 53 28.5t37.5 68.5t22.5 82t7 67q0 47 -16.5 61.5t-34.5 14.5q-31 0 -52 -30t-36.5 -70t-23 -82t-7.5 -66z" />
<glyph unicode="&#x26;" d="M92 264q0 68 17.5 122t51.5 101.5t85 91.5t116 91l23 16q-27 49 -42 101.5t-15 105.5q0 92 29.5 166t82 127t125 81.5t156.5 28.5q133 0 198.5 -64.5t65.5 -178.5q0 -45 -13.5 -93.5t-49 -100.5t-97 -106.5t-157.5 -111.5l-11 -6l129 -193q33 49 56.5 110.5t44.5 127.5 l188 -23q-31 -131 -83 -222t-99 -156q27 -55 53.5 -124t48.5 -155h-231q-10 41 -17.5 64.5t-17.5 52.5q-78 -74 -165 -104.5t-179 -30.5q-76 0 -131 22.5t-91 60t-53.5 89t-17.5 110.5zM315 301q0 -53 34 -92t95 -39q53 0 109.5 28.5t95.5 71.5q-29 51 -79 126t-99 149 q-51 -29 -82 -60.5t-47 -64.5t-21.5 -63.5t-5.5 -55.5zM535 915q0 -47 8 -79.5t24 -65.5l17 8q115 57 156.5 125t41.5 121q0 35 -19.5 60.5t-66.5 25.5q-68 0 -114.5 -52t-46.5 -143z" />
<glyph unicode="'" d="M573 778q2 53 6.5 116.5t10.5 128t15 127t22 114.5l30 127h271l-39 -160q-25 -102 -73 -224t-95 -229h-148z" />
<glyph unicode="(" d="M279 322q0 186 55 355t153.5 313.5t231.5 262t287 201.5l92 -178q-137 -86 -245 -197.5t-182.5 -235.5t-114.5 -253t-40 -250q0 -156 47 -284t168 -255l-151 -149q-66 55 -121.5 130t-95 161t-62 182t-22.5 197z" />
<glyph unicode=")" d="M88 -170q137 86 244.5 197.5t182.5 235.5t115 253t40 250q0 156 -48.5 284t-166.5 255l151 149q66 -55 121 -130t95 -161t62.5 -182t22.5 -197q0 -188 -55 -356t-153.5 -312.5t-231.5 -262t-287 -201.5z" />
<glyph unicode="*" d="M252 881l76 223l59 -19q25 -8 55.5 -25.5t61.5 -38t60.5 -40.5t49.5 -37q-10 25 -20 58.5t-18.5 70.5t-14.5 72t-6 59v64h238v-64q0 -25 -6.5 -59.5t-15.5 -71.5t-20.5 -70.5t-19.5 -58.5q20 14 50 34.5t63 40t63.5 36t55.5 24.5l59 21l74 -228l-62 -18q-25 -8 -59.5 -12 t-71.5 -7.5t-72.5 -3.5h-62.5q23 -14 51.5 -35.5t57 -45t53 -48t39.5 -45.5l39 -51l-193 -139l-37 51q-14 20 -29.5 51t-29.5 67t-26.5 69.5t-18.5 60.5q-6 -25 -18.5 -59.5t-26 -69.5t-28.5 -65.5t-30 -51.5l-39 -51l-192 137l39 51q14 20 39.5 45t53.5 49.5t56.5 46 t49.5 36.5h-63t-72.5 3t-71.5 9t-58 14z" />
<glyph unicode="+" d="M137 434l51 207h322l84 356h217l-84 -356h322l-52 -207h-321l-84 -356h-217l84 356h-322z" />
<glyph unicode="," d="M197 -147q43 2 86 11t80.5 26.5t65.5 40t38 53.5q-61 8 -97 48t-36 105q0 88 57.5 146.5t143.5 58.5q80 0 119.5 -48t39.5 -114q0 -90 -28.5 -174t-88 -151.5t-150.5 -111.5t-214 -52z" />
<glyph unicode="-" d="M285 401l59 248h561l-61 -248h-559z" />
<glyph unicode="." d="M334 139q0 45 16.5 82t44 63.5t63 42t72.5 15.5q72 0 118 -41t46 -121q0 -45 -16 -83t-44 -64.5t-63.5 -42t-72.5 -15.5q-72 0 -118 41t-46 123z" />
<glyph unicode="/" d="M-23 -338l947 1770h264l-946 -1770h-265z" />
<glyph unicode="0" d="M145 367q0 80 12.5 180t41 203.5t74.5 202t113 175t157 122.5t207 46q164 0 256 -106.5t92 -286.5q0 -80 -12.5 -180t-41 -203.5t-74.5 -202t-112.5 -175t-157 -123t-204.5 -46.5q-82 0 -146.5 28t-109.5 80t-70 123.5t-25 162.5zM379 381q0 -84 30.5 -140.5t108.5 -56.5 q57 0 105.5 34t87.5 90.5t67.5 129t48 151.5t28.5 156.5t9 143.5q0 84 -29.5 140t-107.5 56q-57 0 -106.5 -33.5t-88 -90t-67.5 -130t-48.5 -151.5t-28.5 -156t-9 -143zM510 612q0 45 14.5 79t35 56.5t45 34t44.5 11.5q51 0 72.5 -28t21.5 -67q0 -45 -14 -78.5t-34.5 -55 t-44.5 -33t-44 -11.5q-51 0 -73.5 26.5t-22.5 65.5z" />
<glyph unicode="1" d="M131 0l49 209h266l177 733q-70 -47 -150 -86t-133 -57l-59 205q55 18 117.5 46.5t126 63.5t123 74t106.5 80h198l-254 -1059h252l-49 -209h-770z" />
<glyph unicode="2" d="M84 0q12 109 48 194t91.5 154.5t127 130t157.5 121.5q88 63 150.5 111.5t101.5 88.5t57.5 76.5t18.5 77.5q0 55 -33 89t-107 34t-154.5 -31.5t-158.5 -91.5l-82 183q106 84 221 121.5t226 37.5q82 0 145 -23.5t106 -64.5t65.5 -94t22.5 -115q0 -90 -34.5 -163.5t-91 -136 t-130 -118t-151.5 -110.5q-119 -82 -187.5 -142.5t-103.5 -119.5h565l-49 -209h-821z" />
<glyph unicode="3" d="M61 61l86 197q57 -35 135 -57.5t160 -22.5q57 0 108.5 11.5t90.5 38t62.5 69.5t23.5 106q0 84 -64.5 123t-179.5 39h-84l52 199h104q41 0 87 9t86 32.5t65.5 61.5t25.5 96q0 61 -46 94t-118 33q-53 0 -118.5 -19.5t-130.5 -56.5l-64 184q86 45 181 71.5t177 26.5 q76 0 142.5 -17t117 -52t79 -87.5t28.5 -123.5q0 -113 -65.5 -203t-206.5 -145q94 -43 139 -116t45 -159q0 -76 -28.5 -150.5t-94 -135t-171 -97.5t-257.5 -37q-100 0 -191.5 20.5t-175.5 67.5z" />
<glyph unicode="4" d="M82 299l45 188q57 80 144 180.5t186.5 206t206 208t204.5 186.5h246l-184 -768h135l-49 -201h-135l-72 -299h-238l70 299h-559zM354 500h338l119 491q-115 -106 -236.5 -236t-220.5 -255z" />
<glyph unicode="5" d="M66 59l94 203q66 -41 137.5 -60.5t138.5 -19.5q291 0 291 221q0 92 -107.5 146.5t-355.5 58.5q59 174 112.5 339t94.5 321h666l-50 -209h-462q-20 -76 -43 -147.5t-41 -118.5q113 -10 194.5 -42t135 -81t80 -112.5t26.5 -133.5q0 -205 -135 -328t-400 -123 q-98 0 -194 20.5t-182 65.5z" />
<glyph unicode="6" d="M154 418q0 162 54 316.5t167.5 275t289 193.5t414.5 73q10 0 29.5 -1t30.5 -1l-29 -201q-106 0 -206.5 -14.5t-186.5 -51t-154.5 -104t-111.5 -174.5q66 39 136 54.5t122 15.5q68 0 126 -21.5t102 -63.5t69.5 -104.5t25.5 -146.5q0 -119 -39 -210t-104.5 -153.5 t-152.5 -94.5t-183 -32q-84 0 -157.5 29t-127 85t-84 139t-30.5 192zM393 414q0 -47 11.5 -90t34 -75t56 -50.5t80.5 -18.5q98 0 158 70.5t60 193.5q0 49 -14.5 81t-39 50.5t-56.5 26.5t-69 8q-49 0 -100 -12t-98 -31q-10 -37 -16.5 -74.5t-6.5 -78.5z" />
<glyph unicode="7" d="M242 0q37 137 105.5 284.5t152.5 288t177 264.5t181 216h-575l51 215h883l-46 -185q-72 -59 -167 -170.5t-191 -257t-180 -313.5t-133 -342h-258z" />
<glyph unicode="8" d="M127 283q0 59 16.5 109t51 96.5t90 90.5t133.5 93q-47 49 -80 104t-33 131q0 72 26.5 141.5t82 125t139.5 89t199 33.5q76 0 140 -21.5t111.5 -59t75 -92t27.5 -122.5q0 -41 -10.5 -85t-39 -90t-81.5 -93t-141 -90q68 -47 115.5 -110.5t47.5 -163.5q0 -82 -31.5 -154 t-93 -126t-152.5 -85t-210 -31q-66 0 -134.5 16.5t-123.5 52.5t-90 95.5t-35 145.5zM367 315q0 -72 50 -107.5t122 -35.5q43 0 81.5 13.5t68.5 38t47.5 60t17.5 78.5q0 78 -53.5 124t-131.5 87q-63 -31 -102 -62.5t-61.5 -64t-30.5 -65.5t-8 -66zM537 924q0 -66 40.5 -109 t98.5 -78q117 55 155.5 112.5t38.5 113.5q0 66 -39.5 99.5t-111.5 33.5q-86 0 -134 -49t-48 -123z" />
<glyph unicode="9" d="M113 -4l30 199q106 0 206 14t186 53t154.5 107.5t111.5 179.5q-66 -39 -137.5 -54.5t-124.5 -15.5q-68 0 -126.5 20.5t-102.5 62.5t-69.5 103.5t-25.5 145.5q0 119 39 210t104.5 152.5t152.5 92t183 30.5q84 0 158 -28.5t128 -85t85 -139t31 -191.5q0 -164 -54.5 -318.5 t-168 -274.5t-286.5 -193.5t-413 -73.5q-10 0 -29.5 1t-31.5 3zM455 829q0 -94 53 -128.5t127 -34.5q47 0 99 12t100 31q10 39 15 74.5t5 74.5q0 94 -44 160.5t-136 66.5q-98 0 -158.5 -63.5t-60.5 -192.5z" />
<glyph unicode=":" d="M334 139q0 45 16.5 82t44 63.5t63 42t72.5 15.5q72 0 118 -41t46 -121q0 -45 -16 -83t-44 -64.5t-63.5 -42t-72.5 -15.5q-72 0 -118 41t-46 123zM481 760q0 45 16.5 82t44 63.5t63 42t72.5 15.5q72 0 118 -41t46 -121q0 -45 -16 -83t-44 -64.5t-63.5 -42t-72.5 -15.5 q-72 0 -118 41t-46 123z" />
<glyph unicode=";" d="M197 -147q43 2 86 11t80.5 26.5t65.5 40t38 53.5q-61 8 -97 48t-36 105q0 88 57.5 146.5t143.5 58.5q80 0 119.5 -48t39.5 -114q0 -90 -28.5 -174t-88 -151.5t-150.5 -111.5t-214 -52zM481 760q0 45 16.5 82t44 63.5t63 42t72.5 15.5q72 0 118 -41t46 -121q0 -45 -16 -83 t-44 -64.5t-63.5 -42t-72.5 -15.5q-72 0 -118 41t-46 123z" />
<glyph unicode="&#x3c;" d="M160 436l49 203l866 332l19 -226l-635 -221l522 -239l-104 -195z" />
<glyph unicode="=" d="M92 233l49 209h860l-49 -209h-860zM186 633l52 209h858l-49 -209h-861z" />
<glyph unicode="&#x3e;" d="M109 315l634 222l-522 239l105 195l716 -346l-49 -203l-866 -332z" />
<glyph unicode="?" d="M315 129q0 43 15.5 78t41 59.5t59.5 37.5t69 13q66 0 108.5 -37.5t42.5 -113.5q0 -41 -15 -76t-41 -60.5t-58.5 -40t-69.5 -14.5q-63 0 -107.5 39t-44.5 115zM393 1202q84 45 174 69.5t189 24.5q90 0 152.5 -20.5t102.5 -56t58 -82.5t18 -103q0 -61 -18 -109t-50 -89 t-75 -77t-94 -71q-47 -35 -80 -59.5t-56.5 -49t-40 -52t-28.5 -66.5h-233q14 94 64 165.5t165 153.5q49 37 83 62.5t53.5 48t28.5 46.5t9 54q0 94 -129 94q-68 0 -125 -21.5t-137 -55.5z" />
<glyph unicode="@" d="M113 301q0 215 50 397.5t140 315.5t214 207.5t274 74.5q184 0 270 -80.5t86 -232.5q0 -39 -7 -87t-18 -93l-166 -690q-57 -18 -118.5 -29.5t-114.5 -11.5q-66 0 -120 17t-93 56t-60.5 100.5t-21.5 149.5q0 94 24.5 186.5t75 164t125 116.5t172.5 45q35 0 62.5 -6 t42.5 -10q6 23 10 48.5t4 41.5q0 63 -44 101t-120 38q-96 0 -183 -54t-152.5 -157.5t-103.5 -251t-38 -331.5q0 -227 90 -325.5t248 -98.5q88 0 140.5 11t68.5 15l-14 -176q-53 -12 -108.5 -20t-115.5 -8q-242 0 -370.5 141t-128.5 436zM633 397q0 -66 28.5 -98.5 t81.5 -32.5h17.5t19.5 4l103 428q-16 12 -52 13q-53 0 -91 -28t-61.5 -73t-34.5 -100t-11 -113z" />
<glyph unicode="A" d="M-12 0q174 381 335.5 699.5t315.5 568.5h268q29 -242 46.5 -511.5t21.5 -574.5v-182h-254l8 295h-360q-31 -70 -64 -143.5t-61 -151.5h-256zM463 498h270q1 69 1 127v55q-1 78 -3 138.5t-5 110.5t-5 99q-27 -51 -52.5 -100t-55 -109.5t-66.5 -138.5t-84 -182z" />
<glyph unicode="B" d="M80 27l293 1216q41 10 87 17.5t90 12.5t85 7t72 2q88 0 159.5 -16.5t122.5 -53t80 -93t29 -136.5q0 -92 -50.5 -177t-181.5 -136q86 -41 125 -101.5t39 -150.5q0 -98 -39 -178t-115.5 -136.5t-190.5 -88t-261 -31.5q-31 0 -73 2t-89 7t-95 13t-87 21zM369 207 q23 -4 58.5 -6t86.5 -2q37 0 84 10t88 34.5t69.5 67.5t28.5 109q0 82 -55 109.5t-143 27.5h-133zM504 760h78q51 0 100 9t88 31.5t63.5 59.5t24.5 90q0 66 -45 92.5t-125 26.5q-33 0 -62.5 -1t-52.5 -5z" />
<glyph unicode="C" d="M180 420q0 154 42 310.5t126 282.5t212 204.5t300 78.5q66 0 117 -12t90 -27.5t63.5 -33t34.5 -25.5l-94 -194q-41 31 -96 52t-141 21q-100 0 -175 -59.5t-125.5 -151.5t-75 -203.5t-24.5 -218.5q0 -55 11.5 -100t37 -79t67.5 -52t103 -18q94 0 157.5 22.5t104.5 46.5 l29 -203q-53 -33 -145 -60.5t-209 -27.5q-104 0 -182 32t-128.5 90.5t-75 141t-24.5 183.5z" />
<glyph unicode="D" d="M63 14l299 1237q90 18 153 24.5t128 6.5q205 0 322.5 -115.5t117.5 -328.5q0 -164 -38.5 -318.5t-124.5 -273.5t-222.5 -190.5t-328.5 -71.5q-66 0 -150 7t-156 23zM362 205q10 -2 22.5 -2h23.5q117 0 197.5 60.5t129.5 153.5t71.5 203.5t22.5 208.5q0 49 -8 92.5 t-28.5 75t-57.5 49t-94 17.5q-37 0 -74 -6z" />
<glyph unicode="E" d="M109 0l303 1268h751l-49 -209h-500l-69 -285h434l-49 -209h-434l-86 -356h544l-49 -209h-796z" />
<glyph unicode="F" d="M117 0l303 1268h778l-49 -209h-524l-76 -307h459l-50 -209h-458l-131 -543h-252z" />
<glyph unicode="G" d="M160 420q0 154 44 310.5t131 282.5t218 204.5t307 78.5q66 0 117 -12t90 -27.5t63.5 -33t34.5 -25.5l-94 -194q-41 31 -96 52t-141 21q-104 0 -183.5 -59.5t-132.5 -151.5t-79.5 -203.5t-26.5 -218.5q0 -111 41 -181t139 -70q27 0 52.5 2t47.5 6l111 463h252l-152 -633 q-47 -16 -146 -37t-218 -21q-190 0 -284.5 117t-94.5 330z" />
<glyph unicode="H" d="M53 0l305 1268h252l-121 -500h338l121 500h252l-305 -1268h-254l137 559h-338l-135 -559h-252z" />
<glyph unicode="I" d="M72 0l49 209h278l205 850h-278l49 209h805l-50 -209h-274l-205 -850h275l-49 -209h-805z" />
<glyph unicode="J" d="M76 113l129 182q41 -37 97 -69.5t128 -32.5q98 0 162.5 52t99.5 193l148 621h-410l49 209h662l-201 -844q-23 -96 -57.5 -179t-92 -143.5t-144.5 -94.5t-212 -34q-66 0 -122 13.5t-100 34t-79 45t-57 47.5z" />
<glyph unicode="K" d="M63 0l304 1268h254l-127 -527q63 57 127.5 126t124 139.5t111.5 138t89 123.5h289q-47 -63 -106.5 -139t-129 -157t-147.5 -161t-160 -152q49 -61 94 -138t83 -164t68 -178t48 -179h-264q-14 72 -42 155t-63.5 162.5t-76.5 150.5t-82 120l-142 -588h-252z" />
<glyph unicode="L" d="M92 0l303 1268h252l-254 -1059h535l-49 -209h-787z" />
<glyph unicode="M" d="M12 0q43 156 89 324t93.5 334.5t93.5 322.5t91 287h217q4 -43 11 -114t13.5 -151.5t11.5 -166.5t9 -160l307 592h232q-41 -309 -103.5 -623.5t-134.5 -644.5h-231l254 995l-283 -546h-178q-4 135 -13.5 274t-19.5 262l-227 -985h-232z" />
<glyph unicode="N" d="M53 0l303 1268h215q29 -90 61 -196.5t59.5 -215t51 -215t37.5 -195.5l195 822h223l-303 -1268h-205q-35 211 -83 432t-113 477l-218 -909h-223z" />
<glyph unicode="O" d="M137 367q0 80 12.5 180t42 203.5t75.5 202t115 175t160 122.5t210 46q166 0 260 -107.5t94 -285.5q0 -80 -12.5 -180t-41 -203.5t-75.5 -202t-114.5 -175t-159 -123t-209.5 -46.5q-168 0 -262.5 107.5t-94.5 286.5zM389 385q0 -80 27.5 -136t105.5 -56q84 0 146.5 71.5 t103.5 177t61.5 225t20.5 218.5q0 80 -27.5 136t-103.5 56q-84 0 -147.5 -71.5t-104.5 -177t-61.5 -226.5t-20.5 -217z" />
<glyph unicode="P" d="M78 0l301 1251q96 16 181 23.5t151 7.5q113 0 193.5 -25.5t133 -72.5t76 -111.5t23.5 -140.5q0 -129 -48.5 -224.5t-134.5 -157t-204.5 -91t-262.5 -29.5h-53l-104 -430h-252zM485 647h62q166 0 251 65.5t85 182.5q0 78 -43 123t-162 45q-29 0 -47.5 -1t-46.5 -5z" />
<glyph unicode="Q" d="M139 367q0 80 12.5 180t41 203.5t75.5 202t115 175t159 122.5t210 46q166 0 259 -107.5t93 -285.5q0 -76 -11.5 -170t-36 -192.5t-66.5 -193.5t-101.5 -173t-140 -130t-185.5 -67v-14q0 -59 83 -94t206 -49l-78 -168q-205 29 -308.5 99.5t-103.5 205.5v16.5t3 18.5 q-109 39 -167.5 136t-58.5 239zM389 385q0 -80 27.5 -136t105.5 -56q84 0 146.5 71.5t103.5 177t61.5 225t20.5 218.5q0 80 -27.5 136t-103.5 56q-84 0 -147.5 -71.5t-104.5 -177t-61.5 -226.5t-20.5 -217z" />
<glyph unicode="R" d="M70 0l297 1247q39 8 83 15.5t87 11.5t81.5 6t69.5 2q203 0 303.5 -89t100.5 -241q0 -72 -19.5 -140.5t-59.5 -126.5t-98.5 -102.5t-134.5 -64.5q31 -51 58.5 -114.5t52 -132t44 -138.5t32.5 -133h-246q-23 123 -64 237.5t-96 229.5h-131l-113 -467h-247zM479 676h94 q53 0 101.5 14.5t85.5 45t58.5 77.5t21.5 111q0 72 -43 110.5t-148 38.5q-23 0 -41 -2t-35 -6z" />
<glyph unicode="S" d="M63 84l109 192q20 -12 52 -28.5t72 -30.5t87 -23.5t100 -9.5q47 0 90 9.5t75 31t51.5 54t19.5 81.5q0 37 -15.5 67t-42 54.5t-62.5 45t-77 40.5q-51 27 -95 53.5t-76 63.5t-50 88t-18 125q0 180 121.5 289.5t347.5 109.5q74 0 132 -10t103 -24.5t77 -31t52 -28.5 l-106 -194q-47 33 -119 55t-172 22q-78 0 -132.5 -34.5t-54.5 -120.5q0 -70 46.5 -106t111.5 -64q61 -29 112.5 -59.5t88.5 -71.5t58.5 -96.5t21.5 -131.5q0 -209 -134.5 -318.5t-379.5 -109.5q-82 0 -146.5 12.5t-111.5 29t-81 36t-55 33.5z" />
<glyph unicode="T" d="M264 1059l49 209h922l-49 -209h-336l-254 -1059h-252l254 1059h-334z" />
<glyph unicode="U" d="M137 299q0 84 25 188l188 781h252l-186 -779q-10 -47 -18.5 -89t-8.5 -76q0 -61 28.5 -96t104.5 -35q45 0 78 13t57.5 45t44 85t37.5 133l193 799h252l-197 -817q-27 -113 -60.5 -201t-89 -149.5t-140.5 -94.5t-212 -33q-180 0 -264 86t-84 240z" />
<glyph unicode="V" d="M279 1153v61.5t2 53.5h258q-4 -96 -6.5 -220t-2.5 -257q0 -143 3.5 -280.5t9.5 -254.5q55 106 119.5 241.5t127 273.5t118 268t93.5 229h263q-53 -123 -124 -274.5t-154 -318.5t-177 -340t-193 -335h-268q-16 119 -28.5 261t-21.5 293t-14 304.5t-5 294.5z" />
<glyph unicode="W" d="M80 0q41 309 103.5 623.5t133.5 644.5h232l-252 -996l281 547h178q4 -135 14 -274t21 -262l227 985h229q-43 -156 -88 -324t-92 -335t-94 -322.5t-92 -286.5h-217q-4 43 -11.5 113.5t-13.5 151.5t-12 166t-9 159l-305 -590h-233z" />
<glyph unicode="X" d="M4 0l528 692l-225 576h258l140 -387q68 88 140.5 187t137.5 200h266q-111 -158 -225.5 -303.5t-230.5 -288.5q33 -88 63.5 -184.5t54 -187.5t40 -170t22.5 -134h-250q-14 104 -40 228t-60 239l-330 -467h-289z" />
<glyph unicode="Y" d="M291 1268h248q12 -147 39.5 -296t58.5 -276q33 47 80 118t96 149.5t97 158.5t85 146h271q-63 -104 -126 -202.5t-128.5 -195t-138 -191.5t-154.5 -196l-117 -483h-252l115 481q-63 199 -104.5 388.5t-69.5 398.5z" />
<glyph unicode="Z" d="M57 0l41 166q63 86 136 180t162 201.5t199 234.5t245 279h-512l51 207h790l-49 -205q-119 -133 -219 -248t-188 -218t-168 -199.5t-156 -190.5h551l-51 -207h-832z" />
<glyph unicode="[" d="M182 -338l426 1770h570l-48 -197h-327l-332 -1376h328l-47 -197h-570z" />
<glyph unicode="\" d="M422 1432h240l165 -1770h-243z" />
<glyph unicode="]" d="M31 -338l47 197h328l331 1376h-327l47 197h569l-426 -1770h-569z" />
<glyph unicode="^" d="M158 651l514 617h213l215 -641l-230 -99l-149 463l-373 -454z" />
<glyph unicode="_" d="M-70 -338l54 219h915l-53 -219h-916z" />
<glyph unicode="`" d="M487 1223l125 192l324 -241l-92 -138z" />
<glyph unicode="a" d="M131 352q0 139 47 256t129 200t191.5 129t232.5 46q84 0 170 -16.5t174 -51.5l-127 -522q-8 -37 -12 -72.5t-4 -72.5q0 -59 11 -115.5t30 -112.5l-221 -36q-4 8 -10.5 20t-12.5 26.5t-10 26t-6 17.5q-41 -31 -110.5 -64t-180.5 -33q-135 2 -213 97.5t-78 277.5zM381 373 q0 -53 9 -88t26.5 -55.5t42 -28.5t55.5 -8q57 0 96 25.5t68 60.5q4 29 8 55t12 61l88 365q-23 6 -47 8t-47 2q-72 0 -129 -34t-98 -89t-62.5 -126.5t-21.5 -147.5z" />
<glyph unicode="b" d="M82 35l324 1343l262 43l-117 -487q43 23 91 35t93 12q135 0 214 -91t79 -286q0 -139 -43 -256t-121 -199.5t-186.5 -129t-239.5 -46.5q-82 0 -180 16.5t-176 45.5zM373 199q23 -4 47 -6.5t47 -2.5q76 0 133 33t97 87.5t60.5 125t20.5 148.5q0 106 -35.5 146t-95.5 40 q-33 0 -75 -12.5t-70 -34.5z" />
<glyph unicode="c" d="M158 373q0 133 47 245.5t132 193.5t201.5 127t258.5 46q55 0 97 -4t77 -11t62.5 -16.5t53.5 -21.5l-90 -201q-33 14 -84 25.5t-116 11.5q-84 0 -154 -25.5t-122 -75t-80.5 -121t-28.5 -163.5q0 -41 10 -75t37.5 -58.5t76 -38.5t121.5 -14q80 0 148.5 15t103.5 32l25 -201 q-25 -12 -53.5 -24.5t-67.5 -21.5t-91 -14.5t-124 -5.5q-125 0 -209 32t-135 85t-73.5 126t-22.5 153z" />
<glyph unicode="d" d="M131 352q0 139 47 255t128 198t190.5 127t232.5 45q55 0 107 -14l98 415l262 43l-248 -1028q-8 -37 -12 -72.5t-4 -72.5q0 -59 11 -115.5t30 -112.5l-221 -36q-4 8 -10.5 20t-12.5 26.5t-10 26t-6 17.5q-41 -31 -111 -64t-180 -33q-135 2 -213 97.5t-78 277.5zM381 373 q0 -53 9 -88t26.5 -55.5t42 -28.5t55.5 -8q57 0 96 25.5t68 60.5q4 29 8 55t12 61l88 365q-23 6 -47 8t-47 2q-72 0 -129 -34t-98 -89t-62.5 -126.5t-21.5 -147.5z" />
<glyph unicode="e" d="M154 375q0 119 39.5 230.5t116.5 195.5t186.5 135t251.5 51q141 0 231 -69.5t90 -194.5q0 -104 -51 -177t-141.5 -118t-212.5 -65.5t-263 -20.5q0 -37 12.5 -66.5t40 -50t73.5 -32t116 -11.5q82 0 155.5 17.5t108.5 33.5l17 -190q-49 -25 -137.5 -46.5t-192.5 -21.5 q-117 0 -201 30t-137 83t-77.5 126t-24.5 161zM403 516q129 0 212 16.5t130.5 42t65.5 56.5t18 57q0 47 -34 72.5t-95 25.5q-94 0 -179 -64.5t-118 -205.5z" />
<glyph unicode="f" d="M-72 -303l70 213q27 -10 58.5 -17.5t72.5 -7.5q45 0 78 14.5t54.5 38t34.5 55.5t19 68l140 693h-207l51 209h199l10 55q25 117 69 193.5t104 122.5t134 65.5t156 19.5q66 0 126 -10t113 -35l-88 -205q-41 18 -76.5 26.5t-78.5 8.5q-37 0 -69 -5t-58.5 -24.5t-47 -56.5 t-32.5 -100l-10 -55h348l-51 -209h-338l-140 -701q-39 -193 -147.5 -295t-288.5 -102q-61 0 -112.5 11t-92.5 30z" />
<glyph unicode="g" d="M2 -264l88 198q53 -23 119.5 -43t155.5 -20q123 0 185 52t83 138l12 54q-45 -23 -92 -36t-90 -13q-164 0 -235.5 92t-71.5 243q0 139 50 248t134 182.5t191.5 112.5t222.5 39q86 0 173 -13.5t165 -45.5l-195 -811q-29 -119 -72 -205t-109.5 -142.5t-158.5 -83t-217 -26.5 q-109 0 -185.5 19.5t-152.5 60.5zM401 420q0 -61 27 -106.5t109 -45.5q29 0 72.5 11.5t84.5 37.5l109 449q-49 12 -94 12q-70 0 -126.5 -29.5t-96.5 -78.5t-62.5 -115t-22.5 -135z" />
<glyph unicode="h" d="M90 0l330 1378l262 43l-111 -463q35 10 72 17.5t72 7.5q152 0 227.5 -72.5t75.5 -205.5q0 -35 -5 -76t-16 -86l-131 -543h-252l123 510q6 33 14.5 67.5t8.5 69.5q0 47 -24.5 83t-94.5 36q-27 0 -58.5 -5t-60.5 -18l-180 -743h-252z" />
<glyph unicode="i" d="M227 754l52 209h518l-140 -588q-12 -43 -12 -76q0 -102 105 -102q35 0 82 7t104 27l4 -204q-76 -29 -142.5 -39.5t-123.5 -10.5q-145 0 -215 71t-70 200q0 68 23 158l82 348h-267zM535 1223q0 39 14 72.5t37.5 56t54.5 36t64 13.5q59 0 103 -35t44 -113 q0 -37 -15.5 -69.5t-40 -55t-55 -36t-61.5 -13.5q-66 0 -105.5 35t-39.5 109z" />
<glyph unicode="j" d="M-12 -256l98 203q45 -29 96 -51.5t117 -22.5q78 0 127 38t74 140l168 703h-389l51 209h641l-219 -912q-29 -117 -69 -194.5t-93 -122.5t-121 -63.5t-152 -18.5q-104 0 -190 25.5t-139 66.5zM664 1223q0 39 14 72.5t37.5 56t54.5 36t64 13.5q61 0 105 -35t44 -113 q0 -37 -15.5 -69.5t-40 -55t-55 -36t-61.5 -13.5q-66 0 -106.5 35t-40.5 109z" />
<glyph unicode="k" d="M111 0l331 1378l263 43l-199 -827q37 31 86 76t100 95t99.5 102.5t82.5 95.5h287q-98 -119 -221 -235t-233 -208q37 -45 74.5 -109.5t74.5 -136t67.5 -143.5t51.5 -131h-273q-16 51 -42.5 116.5t-57.5 131t-63.5 123t-63.5 94.5l-110 -465h-254z" />
<glyph unicode="l" d="M297 1200l49 209h518l-241 -1024q-4 -20 -9.5 -44t-5.5 -42q0 -41 22.5 -71.5t92.5 -30.5q29 0 58.5 5t56 13t47 14.5t30.5 10.5l17 -199q-8 -4 -31.5 -15.5t-62.5 -21.5t-91.5 -18.5t-115.5 -8.5q-139 0 -209 72t-70 201q0 35 5 72.5t16 78.5l190 799h-266z" />
<glyph unicode="m" d="M43 0l221 920q76 27 138.5 40t121.5 13q53 0 99.5 -16.5t74.5 -55.5q47 37 101.5 54.5t97.5 17.5q82 0 134 -50.5t52 -156.5q0 -25 -3 -52.5t-11 -56.5l-156 -657h-204l159 676q4 14 6.5 29.5t2.5 23.5q0 61 -56 62q-20 0 -38.5 -10.5t-34.5 -24.5q0 -47 -13 -99 l-69 -290h-199l72 305q4 12 8 28.5t4 32.5q0 20 -10.5 37.5t-40.5 17.5q-35 0 -66 -10l-186 -778h-205z" />
<glyph unicode="n" d="M90 0l221 922q63 20 166 40.5t219 20.5q172 0 247 -73.5t75 -204.5q0 -35 -5 -76t-16 -86l-133 -543h-252l125 510q6 33 14.5 67.5t8.5 69.5q0 47 -25.5 83t-93.5 36q-29 0 -59.5 -5t-59.5 -18l-180 -743h-252z" />
<glyph unicode="o" d="M133 334q0 123 37 239.5t108.5 208.5t178 148.5t245.5 56.5q150 0 241 -91t91 -271q0 -121 -34.5 -238t-105.5 -209t-176.5 -148.5t-244.5 -56.5q-172 0 -256 98.5t-84 262.5zM385 399q0 -96 27.5 -151t111.5 -55q61 0 108.5 36.5t81.5 92t51 120t17 121.5 q0 96 -27.5 151.5t-113.5 55.5q-59 0 -107.5 -37t-81 -92t-50 -119.5t-17.5 -122.5z" />
<glyph unicode="p" d="M-4 -338l303 1256q43 18 92 30.5t99.5 20.5t96.5 11t83 3q190 0 278 -97.5t88 -250.5q0 -127 -36.5 -246t-111.5 -210t-189.5 -145t-268.5 -54q-41 0 -63.5 2t-38.5 6l-80 -326h-252zM379 201q10 -4 22.5 -4h26.5q84 0 151.5 33.5t113.5 91t70.5 134t24.5 160.5 q0 31 -6 60t-22.5 51.5t-47 35.5t-79.5 13q-41 0 -68.5 -4t-50.5 -10z" />
<glyph unicode="q" d="M147 352q0 141 47.5 257t129.5 199t191.5 129t232.5 46q84 0 170 -16.5t174 -51.5l-301 -1253h-252l86 365q-90 -45 -187 -45q-133 0 -212 94t-79 276zM397 373q0 -53 9.5 -88t27 -55.5t42 -28.5t54.5 -8q33 0 75 13t71 36l127 518q-23 6 -47.5 8t-46.5 2 q-72 0 -129.5 -34t-98.5 -89t-62.5 -126.5t-21.5 -147.5z" />
<glyph unicode="r" d="M141 0l215 899q96 39 208 60.5t210 21.5q115 0 187.5 -10t134.5 -27l-97 -231q-39 14 -92 22t-131 8q-53 0 -109.5 -7t-103.5 -23l-170 -713h-252z" />
<glyph unicode="s" d="M100 63l95 199q41 -23 112.5 -49.5t171.5 -26.5q109 0 150 29t41 68q0 18 -7.5 32.5t-24.5 27.5t-48 26.5t-78 31.5q-57 20 -100 43t-72 52.5t-43 68.5t-14 92q0 150 105.5 240t316.5 90q104 0 191 -18.5t138 -42.5l-92 -199q-47 23 -107.5 37t-152.5 14q-20 0 -46 -3 t-48.5 -13t-37.5 -27.5t-15 -44.5q0 -18 5 -31.5t21.5 -27t47 -27.5t81.5 -33q61 -25 105.5 -49t74 -55t43 -72t13.5 -98q0 -59 -24.5 -116.5t-77 -103.5t-136.5 -75t-201 -29q-84 0 -147.5 10.5t-110.5 25t-78.5 29.5t-50.5 25z" />
<glyph unicode="t" d="M225 754l51 209h191l57 241l264 41l-69 -282h366l-51 -209h-364l-90 -375q-10 -51 -11 -80q0 -61 42 -81.5t96 -20.5q55 0 113.5 13t113.5 36l-2 -211q-63 -29 -140 -43.5t-153 -14.5q-164 0 -245 71t-81 206q0 33 4.5 66.5t14.5 72.5l86 361h-193z" />
<glyph unicode="u" d="M156 268q0 94 28 219l115 476h252l-109 -459q-16 -61 -24 -111.5t-8 -89.5q0 -106 102 -106q57 0 91 23.5t65 58.5q4 29 7 55t13 61l135 568h252l-137 -570q-8 -37 -13 -72.5t-5 -72.5q0 -59 12 -115.5t31 -112.5l-222 -36l-10 20t-12 26.5t-10 26t-7 17.5 q-41 -31 -106 -64t-143 -33q-166 0 -231.5 78t-65.5 213z" />
<glyph unicode="v" d="M217 963h262q2 -74 6 -162t11.5 -177t16.5 -177.5t19 -161.5q43 61 92.5 146t95.5 178t85 185.5t61 168.5h271q-49 -131 -117 -269.5t-142.5 -266.5t-151.5 -238.5t-142 -188.5h-228q-47 186 -85 429t-54 534z" />
<glyph unicode="w" d="M131 0q0 90 4 199.5t13.5 233.5t23.5 257t37 273h219q-35 -178 -65.5 -349.5t-53.5 -361.5q47 82 84 151.5t68 131t57.5 118t52.5 115.5h166q4 -115 9.5 -233.5t13.5 -282.5q33 98 60.5 186t51 174t46 172t45.5 179h221q-90 -281 -179.5 -529t-187.5 -434h-188 q-10 109 -17.5 220.5t-15.5 254.5q-37 -76 -67.5 -136t-62.5 -113.5t-65.5 -108t-74.5 -117.5h-195z" />
<glyph unicode="x" d="M20 0l437 489l-234 474h264l142 -308q61 74 120.5 153t110.5 155h266q-78 -111 -170 -229t-213 -247q72 -135 124.5 -249.5t93.5 -237.5h-259q-33 86 -68.5 167t-66.5 144l-270 -311h-277z" />
<glyph unicode="y" d="M-88 -301l80 201q33 -14 61.5 -21.5t73.5 -7.5q150 0 248 147q-49 197 -89 427.5t-55 517.5h263q2 -74 7 -162t13 -178.5t19.5 -178.5t25.5 -159q94 143 166 310t131 368h268q-53 -141 -104 -262t-105.5 -230t-114 -208t-126.5 -195q-51 -74 -109.5 -147t-127 -132 t-150.5 -96t-178 -37q-127 0 -197 43z" />
<glyph unicode="z" d="M100 0l43 166q55 66 126 142.5t148 155.5t152.5 153.5t141.5 136.5h-416l51 209h739l-43 -185q-41 -35 -107.5 -97.5t-146 -139t-165.5 -162.5t-164 -170h461l-52 -209h-768z" />
<glyph unicode="{" d="M203 449l47 196h100q63 0 108.5 44t63.5 128l72 303q18 76 44 134.5t68 97.5t105 59.5t156 20.5h219l-49 -197h-154q-43 0 -70.5 -9t-46 -28.5t-31 -51.5t-22.5 -75l-61 -260q-29 -115 -83 -179.5t-163 -84.5q70 -31 94.5 -84t24.5 -115q0 -29 -3.5 -58.5t-11.5 -58.5 l-45 -202l-9 -45t-5 -45q0 -35 20.5 -57.5t73.5 -22.5h184l-47 -197h-190q-59 0 -109.5 12.5t-87.5 40t-58.5 73.5t-21.5 112q0 53 19 127l51 223q6 25 11 49.5t5 48.5q0 41 -21.5 71t-80.5 30h-96z" />
<glyph unicode="|" d="M256 -338l426 1770h252l-424 -1770h-254z" />
<glyph unicode="}" d="M8 -338l47 197h156q43 0 69.5 9t45 28.5t31 51.5t22.5 75l61 260q29 115 83 179.5t163 84.5q-70 31 -94.5 84t-24.5 114q0 29 4 59t11 58l45 203l9 45t5 45q0 35 -19.5 57.5t-74.5 22.5h-185l48 197h190q59 0 110.5 -12.5t88.5 -40t57.5 -73.5t20.5 -112 q0 -29 -4.5 -59.5t-12.5 -65.5l-53 -225q-6 -25 -10 -49.5t-4 -49.5q0 -41 20.5 -70.5t79.5 -29.5h96l-47 -196h-98q-63 0 -109.5 -44.5t-64.5 -128.5l-72 -303q-18 -76 -44 -134t-68 -97t-105.5 -59.5t-155.5 -20.5h-217z" />
<glyph unicode="~" d="M102 410q20 61 52 119.5t75 102.5t97.5 70.5t119.5 26.5q66 0 112 -25.5t87 -54.5q29 -20 62.5 -39.5t66.5 -19.5q20 0 36.5 4t32 18.5t32 41t38.5 71.5l172 -53q-25 -66 -57.5 -124.5t-74.5 -101.5t-95 -68.5t-119 -25.5t-111.5 27t-84.5 55q-31 20 -64 39t-67 19 q-20 0 -37 -4.5t-32 -17.5t-32.5 -40t-38.5 -72z" />
<glyph unicode="&#xa0;" />
<glyph unicode="&#xa1;" d="M260 -330l82 342q18 74 34.5 133.5t35 112.5t39 105.5t45.5 113.5h209q-6 -72 -13.5 -131t-15.5 -116.5t-20.5 -114t-26.5 -117.5l-78 -328h-291zM500 772q0 41 15 76t41 60.5t58.5 40t69.5 14.5q63 0 107.5 -39t44.5 -115q0 -43 -15.5 -78t-41 -59.5t-59.5 -37.5 t-69 -13q-66 0 -108.5 37.5t-42.5 113.5z" />
<glyph unicode="&#xa2;" d="M180 442q0 115 36 211.5t101.5 169t156.5 119.5t202 62l63 264h252l-63 -269q53 -8 95 -22t77 -29l-92 -200q-31 14 -86.5 29.5t-120.5 15.5q-78 0 -145.5 -20.5t-117 -60.5t-77 -100.5t-27.5 -140.5q0 -92 58.5 -144.5t199.5 -52.5q80 0 139.5 17.5t94.5 34.5l24 -201 q-41 -23 -104.5 -41t-145.5 -25l-59 -258h-254l66 275q-76 16 -128.5 52t-84 85t-46 107.5t-14.5 121.5z" />
<glyph unicode="&#xa3;" d="M156 0q70 154 109.5 277.5t68.5 228.5h-162l49 211h164l47 188q27 106 76 181t113.5 121t140.5 66.5t153 20.5q78 0 150 -15t125 -50l-103 -191q-41 23 -85 33t-87 10t-79.5 -9t-68.5 -34.5t-56.5 -70.5t-42.5 -119l-33 -133h323l-49 -209h-323q-16 -66 -44 -145.5 t-55 -149.5h504l-49 -211h-786z" />
<glyph unicode="&#xa4;" d="M150 344l133 127q-39 72 -39 166q0 96 39 166l-133 129l167 164l138 -131q39 16 78.5 25t91.5 9q88 0 170 -34l137 131l166 -164l-131 -129q37 -72 37 -164q0 -94 -37 -168l131 -127l-168 -164l-137 131q-39 -18 -79 -27.5t-89 -9.5q-92 0 -172 37l-138 -131zM469 637 q0 -80 45 -122t111 -42q63 0 108 42t45 124q0 78 -45 120t-108 42q-66 0 -111 -42t-45 -122z" />
<glyph unicode="&#xa5;" d="M127 207l37 160h268l33 145h-266l39 160h217q-59 158 -110.5 315.5t-80.5 280.5h262q12 -61 24.5 -116.5t28 -114t34.5 -123t46 -144.5q182 219 340 498h273q-51 -82 -100.5 -155t-101.5 -143.5t-108.5 -143t-123.5 -154.5h200l-39 -160h-268l-33 -145h269l-39 -160h-271 l-49 -207h-266l51 207h-266z" />
<glyph unicode="&#xa6;" d="M266 -338l174 725h252l-172 -725h-254zM518 707l174 725h252l-174 -725h-252z" />
<glyph unicode="&#xa7;" d="M70 -125l86 184q57 -33 111.5 -46t113.5 -13q113 0 161 33t48 80t-37 72.5t-121 68.5l-37 18q-35 16 -68.5 37t-60 50.5t-43 68.5t-16.5 94q0 90 59.5 175t163.5 149q-29 33 -41 75t-12 83q0 55 26.5 108t80 94t133 65.5t184.5 24.5q80 0 157.5 -17t137.5 -50l-86 -182 q-57 29 -110.5 41t-102.5 12q-92 0 -136.5 -27.5t-44.5 -68.5q0 -43 37 -69t123 -69l35 -18q35 -16 68.5 -36.5t60.5 -48.5t43 -67t16 -94q0 -86 -58 -172t-169 -149q35 -37 46 -77t11 -81q0 -59 -26.5 -117.5t-80.5 -103.5t-138 -73t-199 -28q-86 0 -171 18.5t-144 55.5z M432 567q0 -39 30 -80t93 -69l82 -39q61 37 100 84t39 96q0 47 -31.5 86t-109.5 74l-70 31q-59 -39 -96 -83.5t-37 -99.5z" />
<glyph unicode="&#xa8;" d="M426 1223q0 35 13.5 63.5t34 49t47 31.5t52.5 11q51 0 88 -33.5t37 -89.5q0 -35 -14 -62.5t-35.5 -48t-48 -31.5t-51.5 -11q-53 0 -88 32.5t-35 88.5zM831 1223q0 70 47.5 112.5t102.5 42.5q51 0 87 -33.5t36 -89.5q0 -35 -14.5 -62.5t-36 -48t-48 -31.5t-51.5 -11 q-53 0 -88 32.5t-35 88.5z" />
<glyph unicode="&#xa9;" d="M129 473q0 125 39 219t102.5 156.5t146.5 93.5t173 31t173 -31t147.5 -93.5t103.5 -156.5t39 -219t-39 -218t-103.5 -155.5t-147.5 -94.5t-173 -32t-173 32t-146.5 94.5t-102.5 155.5t-39 218zM264 475q0 -90 27.5 -159.5t74 -116.5t105 -71t119.5 -24q59 0 117.5 24 t104.5 71t73.5 116.5t27.5 159.5q0 88 -27.5 156.5t-73.5 116t-103.5 72t-118.5 24.5t-119.5 -24.5t-105 -72t-74 -116t-27.5 -156.5zM367 469q0 49 14 96t43 84t74 59.5t106 22.5q31 0 67 -5t72 -21l-43 -111q-23 10 -44 13t-42 3q-63 0 -90.5 -41t-27.5 -92 q0 -66 32.5 -103.5t96.5 -37.5q16 0 40.5 4t45.5 14l34 -108q-35 -16 -72.5 -24.5t-70.5 -8.5q-59 0 -103 21.5t-74 57.5t-44 82t-14 95z" />
<glyph unicode="&#xaa;" d="M332 854q0 76 28.5 154.5t89 142t150.5 103.5t213 40q53 0 111.5 -7t124.5 -25l-82 -340q-6 -31 -13.5 -68t-8.5 -79t6 -88t28 -97l-172 -25l-25 58q-96 -66 -192 -66q-63 0 -111.5 24.5t-81 65.5t-49 94.5t-16.5 112.5zM524 874q0 -55 29 -94t88 -39q27 0 53.5 8.5 t55.5 30.5q-2 6 -2 27q0 29 6 56.5t12 56.5l49 190q-12 2 -24.5 3t-22.5 1q-49 0 -93 -17.5t-78 -48t-53.5 -74.5t-19.5 -100z" />
<glyph unicode="&#xab;" d="M182 530l357 418l127 -92l-260 -342l118 -346l-141 -74zM592 530l356 418l127 -92l-260 -342l119 -346l-141 -74z" />
<glyph unicode="&#xac;" d="M180 535l51 208h826l-158 -657h-215l109 449h-613z" />
<glyph unicode="&#xad;" d="M285 401l59 248h561l-61 -248h-559z" />
<glyph unicode="&#xae;" d="M129 473q0 125 39 219t102.5 156.5t146.5 93.5t173 31t173 -31t147.5 -93.5t103.5 -156.5t39 -219t-39 -218t-103.5 -155.5t-147.5 -94.5t-173 -32t-173 32t-146.5 94.5t-102.5 155.5t-39 218zM264 475q0 -90 27.5 -159.5t74 -116.5t105 -71t119.5 -24q59 0 117.5 24 t104.5 71t73.5 116.5t27.5 159.5q0 88 -27.5 156.5t-73.5 116t-103.5 72t-118.5 24.5t-119.5 -24.5t-105 -72t-74 -116t-27.5 -156.5zM418 225v488q27 8 62.5 13t74.5 5q117 0 172 -45t55 -131q0 -100 -80 -145q23 -35 50.5 -83t54.5 -102h-117q-27 49 -48 87t-40 71h-76 v-158h-108zM526 485h39q55 0 82 14.5t27 61.5q0 41 -33 54.5t-68 13.5q-14 0 -25 -1t-22 -3v-140z" />
<glyph unicode="&#xaf;" d="M438 1147l45 178h588l-43 -178h-590z" />
<glyph unicode="&#xb0;" d="M418 1145q0 133 82 209t213 76q63 0 117.5 -19.5t93.5 -56.5t61.5 -90.5t22.5 -118.5q0 -66 -22.5 -118t-61.5 -89t-93.5 -56.5t-117.5 -19.5q-133 0 -214 75t-81 208zM602 1147q0 -57 32 -85t79 -28q49 0 80.5 28t31.5 85t-31.5 83.5t-80.5 26.5q-45 0 -78 -26.5 t-33 -83.5z" />
<glyph unicode="&#xb1;" d="M47 0l49 209h858l-49 -209h-858zM193 614l49 209h321l76 320h217l-76 -320h322l-49 -209h-322l-78 -321h-217l78 321h-321z" />
<glyph unicode="&#xb2;" d="M365 553q0 55 10 104.5t37.5 93.5t77 85t124.5 82q53 31 84 51t47.5 37.5t21.5 33t5 33.5q0 23 -18.5 38t-48.5 15q-35 0 -81 -20.5t-106 -67.5l-67 146q59 53 133.5 82.5t156.5 29.5q45 0 86 -11t72 -33.5t49.5 -59.5t18.5 -86q0 -84 -43 -147.5t-144 -124.5l-50 -32 t-48 -31t-39 -28.5t-22 -23.5h309l-41 -166h-524z" />
<glyph unicode="&#xb3;" d="M344 596l74 154q35 -23 87 -36.5t105 -13.5q59 0 103.5 20.5t44.5 67.5q0 31 -28 48.5t-89 17.5h-92l37 141h82q59 0 91 27t32 59q0 23 -20.5 39.5t-63.5 16.5q-47 0 -94.5 -15.5t-84.5 -34.5l-39 148q47 23 120 42t145 19q43 0 83 -8t69.5 -28.5t47 -54.5t17.5 -85 q0 -53 -31 -103t-90 -77q41 -20 64.5 -61t23.5 -91q0 -68 -29.5 -115.5t-77 -78.5t-107.5 -44t-124 -13q-72 0 -140.5 15t-115.5 44z" />
<glyph unicode="&#xb4;" d="M565 1174l324 241l125 -192l-357 -187z" />
<glyph unicode="&#xb5;" d="M2 -338l311 1301h250l-110 -461q-12 -47 -23.5 -97.5t-11.5 -91.5q0 -51 23.5 -83.5t82.5 -32.5q57 0 94 20.5t66 40.5q-6 33 -3 67.5t11 69.5l137 568h250l-133 -555q-23 -80 -22 -134q0 -74 80 -88l-72 -206q-92 2 -138 26.5t-75 67.5q-41 -35 -100.5 -66t-135.5 -31 q-53 0 -96 14.5t-70 37.5q-2 -53 -9 -98.5t-19 -98.5l-41 -170h-246z" />
<glyph unicode="&#xb6;" d="M190 760q0 125 51.5 223t139.5 163.5t201.5 100.5t240.5 35q98 0 197.5 -11t171.5 -32l-379 -1577h-207l338 1407q-14 2 -45 4t-65 2h-27.5t-26.5 -2l-338 -1411h-209l197 813q-121 25 -180.5 99.5t-59.5 185.5z" />
<glyph unicode="&#xb7;" d="M412 522q0 45 16.5 82t44 63.5t63 42t72.5 15.5q72 0 118 -41t46 -121q0 -45 -16 -83t-44 -64.5t-63.5 -42t-72.5 -15.5q-72 0 -118 41t-46 123z" />
<glyph unicode="&#xb8;" d="M258 -307l53 119q23 -12 52.5 -19.5t58.5 -7.5q47 0 62.5 18.5t15.5 32.5q0 23 -11.5 38t-42.5 26l-36 12q25 39 45 66.5t43 58.5h168q-16 -20 -31 -42.5t-31 -45.5q45 -23 63.5 -53.5t18.5 -67.5q0 -84 -70.5 -130t-181.5 -46q-98 0 -176 41z" />
<glyph unicode="&#xb9;" d="M319 553l41 166h195l78 328q-41 -23 -83 -38.5t-101 -37.5l-21 159q86 31 166 70t145 82h158l-135 -563h166l-41 -166h-568z" />
<glyph unicode="&#xba;" d="M354 819q0 92 27 178t79 153t131 106.5t181 39.5q143 0 210 -69.5t67 -190.5q0 -90 -27 -176t-79 -152.5t-131 -107.5t-181 -41q-143 0 -210 69.5t-67 190.5zM545 834q0 -68 32.5 -88.5t73.5 -20.5t78 22.5t65.5 62.5t46 94t17.5 118q0 68 -32.5 89.5t-73.5 21.5t-78 -24 t-65.5 -63.5t-46 -94t-17.5 -117.5z" />
<glyph unicode="&#xbb;" d="M131 186l260 342l-119 346l144 74l198 -436l-354 -418zM541 186l260 342l-119 346l143 74l199 -436l-354 -418z" />
<glyph unicode="&#xbc;" d="M27 0l950 1268h199l-953 -1268h-196zM231 1141q78 31 135.5 62.5t120.5 78.5h129l-124 -512h-177l76 307q-45 -23 -76.5 -35t-72.5 -22zM510 80l25 100q37 47 68.5 87t63 79t68.5 79t82 87h205l-74 -309h74l-29 -123h-73l-21 -80h-147l20 80h-262zM692 203h109l45 182 q-41 -41 -81 -91t-73 -91z" />
<glyph unicode="&#xbd;" d="M25 0l950 1268h196l-952 -1268h-194zM231 1141q78 31 135.5 62.5t120.5 78.5h129l-124 -512h-177l76 307q-45 -23 -76.5 -35t-72.5 -22zM549 0q4 96 48 146.5t126 91.5q76 39 109.5 61.5t33.5 50.5q0 18 -13 27.5t-36 9.5q-33 0 -66.5 -16.5t-66.5 -42.5l-57 106 q41 43 103.5 69.5t127.5 26.5q86 0 127 -39.5t41 -105.5q0 -43 -13.5 -73.5t-36 -54.5t-51 -41t-61.5 -34q-25 -12 -53.5 -26.5t-44.5 -28.5h225l-30 -127h-412z" />
<glyph unicode="&#xbe;" d="M66 0l950 1268h198l-952 -1268h-196zM174 791l55 120q20 -10 57.5 -20t78.5 -10q14 0 32.5 1t35 6t27.5 15t11 31q0 45 -111 45h-41l27 106h47q16 0 36 2.5t36 7.5t26.5 15t10.5 27q0 18 -16.5 26t-43.5 8q-41 0 -80.5 -13t-62.5 -23l-25 110q35 23 94.5 37t118.5 14 q96 0 136.5 -33.5t40.5 -78.5t-20.5 -77t-76.5 -63q45 -16 61.5 -41.5t16.5 -56.5q0 -53 -24.5 -90t-62.5 -60.5t-86 -33.5t-93 -10q-78 0 -127 11t-78 28zM510 80l25 100q37 47 68.5 87t63 79t68.5 79t82 87h205l-74 -309h74l-29 -123h-73l-21 -80h-147l20 80h-262z M692 203h109l45 182q-41 -41 -81 -91t-73 -91z" />
<glyph unicode="&#xbf;" d="M104 -86q0 61 18.5 109.5t50.5 89.5t75 76.5t94 70.5q47 33 80 58.5t56.5 50t40 52.5t28.5 66h233q-8 -47 -23.5 -87t-42 -78.5t-66.5 -75.5t-97 -78q-49 -37 -83 -62.5t-53.5 -48t-28.5 -46t-9 -54.5q0 -94 129 -94q68 0 125 21.5t137 56.5l31 -195q-84 -45 -174 -69.5 t-189 -24.5q-90 0 -152.5 20.5t-102.5 56t-58.5 83t-18.5 102.5zM547 772q0 41 15.5 76t41 60.5t58 40t69.5 14.5q63 0 107.5 -39t44.5 -115q0 -43 -15.5 -78t-41 -59.5t-59.5 -37.5t-69 -13q-66 0 -108.5 37.5t-42.5 113.5z" />
<glyph unicode="&#xc0;" d="M-12 0q174 381 335.5 699.5t315.5 568.5h268q29 -242 46.5 -511.5t21.5 -574.5v-182h-254l8 295h-360q-31 -70 -64 -143.5t-61 -151.5h-256zM463 498h270q2 104 1 182t-3 138.5t-5 110.5t-5 99q-27 -51 -52.5 -100t-55 -109.5t-66.5 -138.5t-84 -182zM557 1508l125 192 l324 -241l-92 -138z" />
<glyph unicode="&#xc1;" d="M-12 0q174 381 335.5 699.5t315.5 568.5h268q29 -242 46.5 -511.5t21.5 -574.5v-182h-254l8 295h-360q-31 -70 -64 -143.5t-61 -151.5h-256zM463 498h270q2 104 1 182t-3 138.5t-5 110.5t-5 99q-27 -51 -52.5 -100t-55 -109.5t-66.5 -138.5t-84 -182zM635 1459l324 241 l125 -192l-357 -187z" />
<glyph unicode="&#xc2;" d="M-12 0q174 381 335.5 699.5t315.5 568.5h268q29 -242 46.5 -511.5t21.5 -574.5v-182h-254l8 295h-360q-31 -70 -64 -143.5t-61 -151.5h-256zM463 498h270q2 104 1 182t-3 138.5t-5 110.5t-5 99q-27 -51 -52.5 -100t-55 -109.5t-66.5 -138.5t-84 -182zM543 1442l328 258 l225 -276l-111 -95l-151 142l-207 -142z" />
<glyph unicode="&#xc3;" d="M-12 0q174 381 335.5 699.5t315.5 568.5h268q29 -242 46.5 -511.5t21.5 -574.5v-182h-254l8 295h-360q-31 -70 -64 -143.5t-61 -151.5h-256zM463 498h270q2 104 1 182t-3 138.5t-5 110.5t-5 99q-27 -51 -52.5 -100t-55 -109.5t-66.5 -138.5t-84 -182zM482 1459 q43 100 100 148t143 48q33 0 60.5 -10t51.5 -21.5t46.5 -21.5t44.5 -10q27 0 47.5 14t50.5 59l123 -73q-43 -100 -100 -148.5t-143 -48.5q-35 0 -63 10t-51.5 21.5t-45 22t-43.5 10.5q-27 0 -47.5 -14.5t-50.5 -59.5z" />
<glyph unicode="&#xc4;" d="M-12 0q174 381 335.5 699.5t315.5 568.5h268q29 -242 46.5 -511.5t21.5 -574.5v-182h-254l8 295h-360q-31 -70 -64 -143.5t-61 -151.5h-256zM463 498h270q2 104 1 182t-3 138.5t-5 110.5t-5 99q-27 -51 -52.5 -100t-55 -109.5t-66.5 -138.5t-84 -182zM496 1508 q0 35 13.5 63.5t34 49t47 31.5t52.5 11q51 0 88 -33.5t37 -89.5q0 -35 -14 -62.5t-35.5 -48t-48 -31.5t-51.5 -11q-53 0 -88 32.5t-35 88.5zM901 1508q0 70 47.5 112.5t102.5 42.5q51 0 87 -33.5t36 -89.5q0 -35 -14.5 -62.5t-36 -48t-48 -31.5t-51.5 -11q-53 0 -88 32.5 t-35 88.5z" />
<glyph unicode="&#xc5;" d="M-12 0q172 375 331.5 690.5t311.5 562.5q-27 27 -42.5 65t-15.5 85q0 51 17.5 91t47.5 66.5t68.5 40t79.5 13.5q88 0 153 -53.5t65 -157.5q0 -63 -26 -107.5t-67 -68.5q29 -270 48.5 -573.5t15.5 -653.5h-254l8 295h-360q-31 -70 -64 -143.5t-61 -151.5h-256zM463 498 h270q2 104 1 182t-3 138.5t-5 110.5t-5 99q-27 -51 -52.5 -100t-55 -109.5t-66.5 -138.5t-84 -182zM705 1403q0 -41 25.5 -63.5t55.5 -22.5q35 0 59.5 22.5t24.5 63.5q0 43 -24.5 64.5t-59.5 21.5q-31 0 -56 -21.5t-25 -64.5z" />
<glyph unicode="&#xc6;" d="M-27 0q104 217 187.5 385t160 312.5t155.5 280.5t177 290h586l-49 -209h-229l-70 -285h182l-49 -209h-182l-86 -356h258l-49 -209h-480l70 295h-203l-127 -295h-252zM444 498h160l144 600q-78 -137 -152 -282.5t-152 -317.5z" />
<glyph unicode="&#xc7;" d="M180 420q0 154 42 310.5t126 282.5t212 204.5t300 78.5q66 0 117 -12t90 -27.5t63.5 -33t34.5 -25.5l-94 -194q-41 31 -96 52t-141 21q-100 0 -175 -59.5t-125.5 -151.5t-75 -203.5t-24.5 -218.5q0 -55 11.5 -100t37 -79t67.5 -52t103 -18q94 0 157.5 22.5t104.5 46.5 l29 -203q-47 -29 -128 -55t-185 -31l-17 -26q45 -23 63.5 -53.5t18.5 -67.5q0 -84 -70.5 -130t-181.5 -46q-98 0 -176 41l54 119q23 -12 52 -19.5t58 -7.5q47 0 62.5 18.5t15.5 32.5q0 23 -11.5 38t-41.5 26l-37 12l49 74q-147 35 -218 148.5t-71 285.5z" />
<glyph unicode="&#xc8;" d="M109 0l303 1268h751l-49 -209h-500l-69 -285h434l-49 -209h-434l-86 -356h544l-49 -209h-796zM583 1508l125 192l324 -241l-92 -138z" />
<glyph unicode="&#xc9;" d="M109 0l303 1268h751l-49 -209h-500l-69 -285h434l-49 -209h-434l-86 -356h544l-49 -209h-796zM637 1459l324 241l125 -192l-357 -187z" />
<glyph unicode="&#xca;" d="M109 0l303 1268h751l-49 -209h-500l-69 -285h434l-49 -209h-434l-86 -356h544l-49 -209h-796zM555 1442l328 258l225 -276l-111 -95l-151 142l-207 -142z" />
<glyph unicode="&#xcb;" d="M109 0l303 1268h751l-49 -209h-500l-69 -285h434l-49 -209h-434l-86 -356h544l-49 -209h-796zM498 1508q0 35 13.5 63.5t34 49t47 31.5t52.5 11q51 0 88 -33.5t37 -89.5q0 -35 -14 -62.5t-35.5 -48t-48 -31.5t-51.5 -11q-53 0 -88 32.5t-35 88.5zM903 1508 q0 70 47.5 112.5t102.5 42.5q51 0 87 -33.5t36 -89.5q0 -35 -14.5 -62.5t-36 -48t-48 -31.5t-51.5 -11q-53 0 -88 32.5t-35 88.5z" />
<glyph unicode="&#xcc;" d="M72 0l49 209h278l205 850h-278l49 209h805l-50 -209h-274l-205 -850h275l-49 -209h-805zM561 1508l125 192l324 -241l-92 -138z" />
<glyph unicode="&#xcd;" d="M72 0l49 209h278l205 850h-278l49 209h805l-50 -209h-274l-205 -850h275l-49 -209h-805zM639 1459l324 241l125 -192l-357 -187z" />
<glyph unicode="&#xce;" d="M72 0l49 209h278l205 850h-278l49 209h805l-50 -209h-274l-205 -850h275l-49 -209h-805zM547 1442l328 258l225 -276l-111 -95l-151 142l-207 -142z" />
<glyph unicode="&#xcf;" d="M72 0l49 209h278l205 850h-278l49 209h805l-50 -209h-274l-205 -850h275l-49 -209h-805zM500 1508q0 35 13.5 63.5t34 49t47 31.5t52.5 11q51 0 88 -33.5t37 -89.5q0 -35 -14 -62.5t-35.5 -48t-48 -31.5t-51.5 -11q-53 0 -88 32.5t-35 88.5zM905 1508q0 70 47.5 112.5 t102.5 42.5q51 0 87 -33.5t36 -89.5q0 -35 -14.5 -62.5t-36 -48t-48 -31.5t-51.5 -11q-53 0 -88 32.5t-35 88.5z" />
<glyph unicode="&#xd0;" d="M102 14l129 539h-118l51 209h117l118 489q78 18 140.5 24.5t124.5 6.5q94 0 170.5 -29.5t132 -87t86 -139.5t30.5 -188q0 -164 -38.5 -318.5t-122.5 -273.5t-215.5 -190.5t-317.5 -71.5q-68 0 -141.5 7t-145.5 23zM395 205q10 -2 22.5 -2h16.5q111 0 186.5 60.5 t123 153.5t67.5 203.5t20 208.5q0 100 -35.5 167t-136.5 67h-31.5t-27.5 -2l-70 -299h125l-51 -209h-125z" />
<glyph unicode="&#xd1;" d="M53 0l303 1268h215q29 -90 61 -196.5t59.5 -215t51 -215t37.5 -195.5l195 822h223l-303 -1268h-205q-35 211 -83 432t-113 477l-218 -909h-223zM490 1459q43 100 100 148t143 48q33 0 60.5 -10t51.5 -21.5t46.5 -21.5t44.5 -10q27 0 47.5 14t50.5 59l123 -73 q-43 -100 -100 -148.5t-143 -48.5q-35 0 -63 10t-51.5 21.5t-45 22t-43.5 10.5q-27 0 -47.5 -14.5t-50.5 -59.5z" />
<glyph unicode="&#xd2;" d="M137 367q0 80 12.5 180t42 203.5t75.5 202t115 175t160 122.5t210 46q166 0 260 -107.5t94 -285.5q0 -80 -12.5 -180t-41 -203.5t-75.5 -202t-114.5 -175t-159 -123t-209.5 -46.5q-168 0 -262.5 107.5t-94.5 286.5zM389 385q0 -80 27.5 -136t105.5 -56q84 0 146.5 71.5 t103.5 177t61.5 225t20.5 218.5q0 80 -27.5 136t-103.5 56q-84 0 -147.5 -71.5t-104.5 -177t-61.5 -226.5t-20.5 -217zM591 1508l125 192l324 -241l-92 -138z" />
<glyph unicode="&#xd3;" d="M137 367q0 80 12.5 180t42 203.5t75.5 202t115 175t160 122.5t210 46q166 0 260 -107.5t94 -285.5q0 -80 -12.5 -180t-41 -203.5t-75.5 -202t-114.5 -175t-159 -123t-209.5 -46.5q-168 0 -262.5 107.5t-94.5 286.5zM389 385q0 -80 27.5 -136t105.5 -56q84 0 146.5 71.5 t103.5 177t61.5 225t20.5 218.5q0 80 -27.5 136t-103.5 56q-84 0 -147.5 -71.5t-104.5 -177t-61.5 -226.5t-20.5 -217zM588 1459l324 241l125 -192l-357 -187z" />
<glyph unicode="&#xd4;" d="M137 367q0 80 12.5 180t42 203.5t75.5 202t115 175t160 122.5t210 46q166 0 260 -107.5t94 -285.5q0 -80 -12.5 -180t-41 -203.5t-75.5 -202t-114.5 -175t-159 -123t-209.5 -46.5q-168 0 -262.5 107.5t-94.5 286.5zM389 385q0 -80 27.5 -136t105.5 -56q84 0 146.5 71.5 t103.5 177t61.5 225t20.5 218.5q0 80 -27.5 136t-103.5 56q-84 0 -147.5 -71.5t-104.5 -177t-61.5 -226.5t-20.5 -217zM516 1442l328 258l225 -276l-111 -95l-151 142l-207 -142z" />
<glyph unicode="&#xd5;" d="M137 367q0 80 12.5 180t42 203.5t75.5 202t115 175t160 122.5t210 46q166 0 260 -107.5t94 -285.5q0 -80 -12.5 -180t-41 -203.5t-75.5 -202t-114.5 -175t-159 -123t-209.5 -46.5q-168 0 -262.5 107.5t-94.5 286.5zM389 385q0 -80 27.5 -136t105.5 -56q84 0 146.5 71.5 t103.5 177t61.5 225t20.5 218.5q0 80 -27.5 136t-103.5 56q-84 0 -147.5 -71.5t-104.5 -177t-61.5 -226.5t-20.5 -217zM496 1459q43 100 100 148t143 48q33 0 60.5 -10t51.5 -21.5t46.5 -21.5t44.5 -10q27 0 47.5 14t50.5 59l123 -73q-43 -100 -100 -148.5t-143 -48.5 q-35 0 -63 10t-51.5 21.5t-45 22t-43.5 10.5q-27 0 -47.5 -14.5t-50.5 -59.5z" />
<glyph unicode="&#xd6;" d="M137 367q0 80 12.5 180t42 203.5t75.5 202t115 175t160 122.5t210 46q166 0 260 -107.5t94 -285.5q0 -80 -12.5 -180t-41 -203.5t-75.5 -202t-114.5 -175t-159 -123t-209.5 -46.5q-168 0 -262.5 107.5t-94.5 286.5zM389 385q0 -80 27.5 -136t105.5 -56q84 0 146.5 71.5 t103.5 177t61.5 225t20.5 218.5q0 80 -27.5 136t-103.5 56q-84 0 -147.5 -71.5t-104.5 -177t-61.5 -226.5t-20.5 -217zM485 1508q0 35 13.5 63.5t34 49t47 31.5t52.5 11q51 0 88 -33.5t37 -89.5q0 -35 -14 -62.5t-35.5 -48t-48 -31.5t-51.5 -11q-53 0 -88 32.5t-35 88.5z M890 1508q0 70 47.5 112.5t102.5 42.5q51 0 87 -33.5t36 -89.5q0 -35 -14.5 -62.5t-36 -48t-48 -31.5t-51.5 -11q-53 0 -88 32.5t-35 88.5z" />
<glyph unicode="&#xd7;" d="M154 295l313 252l-201 264l176 141l201 -262l324 262l120 -159l-321 -263l197 -254l-181 -141l-192 254l-314 -254z" />
<glyph unicode="&#xd8;" d="M98 0l92 139q-53 94 -53 228q0 80 12.5 180t42 203.5t75.5 202t115 175t160 122.5t210 46q100 0 176 -41l61 95l148 -82l-86 -131q27 -49 41 -107.5t14 -126.5q0 -80 -12.5 -180t-41 -203.5t-75.5 -202t-114.5 -175t-159 -123t-209.5 -46.5q-53 0 -99.5 11.5t-85.5 31.5 l-65 -98zM379 424l422 641q-14 10 -35.5 15t-44.5 5q-78 0 -141.5 -63.5t-108.5 -159.5t-68.5 -214t-23.5 -224zM436 211q14 -12 36.5 -21.5t49.5 -9.5q80 0 142.5 65.5t107.5 166t68.5 218.5t23.5 222z" />
<glyph unicode="&#xd9;" d="M137 299q0 84 25 188l188 781h252l-186 -779q-10 -47 -18.5 -89t-8.5 -76q0 -61 28.5 -96t104.5 -35q45 0 78 13t57.5 45t44 85t37.5 133l193 799h252l-197 -817q-27 -113 -60.5 -201t-89 -149.5t-140.5 -94.5t-212 -33q-180 0 -264 86t-84 240zM507 1508l125 192 l324 -241l-92 -138z" />
<glyph unicode="&#xda;" d="M137 299q0 84 25 188l188 781h252l-186 -779q-10 -47 -18.5 -89t-8.5 -76q0 -61 28.5 -96t104.5 -35q45 0 78 13t57.5 45t44 85t37.5 133l193 799h252l-197 -817q-27 -113 -60.5 -201t-89 -149.5t-140.5 -94.5t-212 -33q-180 0 -264 86t-84 240zM606 1459l324 241 l125 -192l-357 -187z" />
<glyph unicode="&#xdb;" d="M137 299q0 84 25 188l188 781h252l-186 -779q-10 -47 -18.5 -89t-8.5 -76q0 -61 28.5 -96t104.5 -35q45 0 78 13t57.5 45t44 85t37.5 133l193 799h252l-197 -817q-27 -113 -60.5 -201t-89 -149.5t-140.5 -94.5t-212 -33q-180 0 -264 86t-84 240zM547 1442l328 258 l225 -276l-111 -95l-151 142l-207 -142z" />
<glyph unicode="&#xdc;" d="M137 299q0 84 25 188l188 781h252l-186 -779q-10 -47 -18.5 -89t-8.5 -76q0 -61 28.5 -96t104.5 -35q45 0 78 13t57.5 45t44 85t37.5 133l193 799h252l-197 -817q-27 -113 -60.5 -201t-89 -149.5t-140.5 -94.5t-212 -33q-180 0 -264 86t-84 240zM500 1508q0 35 13.5 63.5 t34 49t47 31.5t52.5 11q51 0 88 -33.5t37 -89.5q0 -35 -14 -62.5t-35.5 -48t-48 -31.5t-51.5 -11q-53 0 -88 32.5t-35 88.5zM905 1508q0 70 47.5 112.5t102.5 42.5q51 0 87 -33.5t36 -89.5q0 -35 -14.5 -62.5t-36 -48t-48 -31.5t-51.5 -11q-53 0 -88 32.5t-35 88.5z" />
<glyph unicode="&#xdd;" d="M291 1268h248q12 -147 39.5 -296t58.5 -276q33 47 80 118t96 149.5t97 158.5t85 146h271q-63 -104 -126 -202.5t-128.5 -195t-138 -191.5t-154.5 -196l-117 -483h-252l115 481q-63 199 -104.5 388.5t-69.5 398.5zM657 1459l324 241l125 -192l-357 -187z" />
<glyph unicode="&#xde;" d="M78 0l305 1268h252l-45 -185q16 2 36.5 2h37.5q117 0 197.5 -25.5t130.5 -70.5t72.5 -109.5t22.5 -140.5q0 -131 -47 -226t-132 -156.5t-202.5 -91t-261.5 -29.5h-59l-55 -236h-252zM436 453h68q164 0 248 66.5t84 182.5q0 78 -42 123t-161 45q-45 0 -94 -6z" />
<glyph unicode="&#xdf;" d="M-250 -303l70 213q27 -10 54.5 -17.5t55.5 -7.5q39 0 67 14.5t47 38t31.5 55.5t20.5 68l191 914q20 98 56 179t95.5 140.5t145.5 92t209 32.5q84 0 143 -20.5t96 -54t53.5 -78.5t16.5 -92q0 -98 -43 -169t-94 -124t-92.5 -97.5t-41.5 -89.5q0 -47 33 -81.5t72 -73.5 t71.5 -92.5t32.5 -135.5q0 -152 -99 -243t-277 -91q-96 0 -144.5 18.5t-81.5 37.5l84 196q25 -16 56.5 -28.5t76.5 -12.5q53 0 95.5 28t42.5 83q0 51 -31 89t-67 75t-66.5 80t-30.5 104q0 84 45 146.5t100 121.5q41 45 77 92.5t36 112.5q0 41 -29.5 62.5t-81.5 21.5 q-78 0 -131 -59.5t-75 -163.5l-189 -928q-39 -193 -141.5 -295t-274.5 -102q-53 0 -98 11t-86 30z" />
<glyph unicode="&#xe0;" d="M131 352q0 139 47 256t129 200t191.5 129t232.5 46q84 0 170 -16.5t174 -51.5l-127 -522q-8 -37 -12 -72.5t-4 -72.5q0 -59 11 -115.5t30 -112.5l-221 -36q-4 8 -10.5 20t-12.5 26.5t-10 26t-6 17.5q-41 -31 -110.5 -64t-180.5 -33q-135 2 -213 97.5t-78 277.5zM381 373 q0 -53 9 -88t26.5 -55.5t42 -28.5t55.5 -8q57 0 96 25.5t68 60.5q4 29 8 55t12 61l88 365q-23 6 -47 8t-47 2q-72 0 -129 -34t-98 -89t-62.5 -126.5t-21.5 -147.5zM546 1223l125 192l324 -241l-92 -138z" />
<glyph unicode="&#xe1;" d="M131 352q0 139 47 256t129 200t191.5 129t232.5 46q84 0 170 -16.5t174 -51.5l-127 -522q-8 -37 -12 -72.5t-4 -72.5q0 -59 11 -115.5t30 -112.5l-221 -36q-4 8 -10.5 20t-12.5 26.5t-10 26t-6 17.5q-41 -31 -110.5 -64t-180.5 -33q-135 2 -213 97.5t-78 277.5zM381 373 q0 -53 9 -88t26.5 -55.5t42 -28.5t55.5 -8q57 0 96 25.5t68 60.5q4 29 8 55t12 61l88 365q-23 6 -47 8t-47 2q-72 0 -129 -34t-98 -89t-62.5 -126.5t-21.5 -147.5zM624 1174l324 241l125 -192l-357 -187z" />
<glyph unicode="&#xe2;" d="M131 352q0 139 47 256t129 200t191.5 129t232.5 46q84 0 170 -16.5t174 -51.5l-127 -522q-8 -37 -12 -72.5t-4 -72.5q0 -59 11 -115.5t30 -112.5l-221 -36q-4 8 -10.5 20t-12.5 26.5t-10 26t-6 17.5q-41 -31 -110.5 -64t-180.5 -33q-135 2 -213 97.5t-78 277.5zM381 373 q0 -53 9 -88t26.5 -55.5t42 -28.5t55.5 -8q57 0 96 25.5t68 60.5q4 29 8 55t12 61l88 365q-23 6 -47 8t-47 2q-72 0 -129 -34t-98 -89t-62.5 -126.5t-21.5 -147.5zM512 1157l328 258l225 -276l-111 -95l-151 142l-207 -142z" />
<glyph unicode="&#xe3;" d="M131 352q0 139 47 256t129 200t191.5 129t232.5 46q84 0 170 -16.5t174 -51.5l-127 -522q-8 -37 -12 -72.5t-4 -72.5q0 -59 11 -115.5t30 -112.5l-221 -36q-4 8 -10.5 20t-12.5 26.5t-10 26t-6 17.5q-41 -31 -110.5 -64t-180.5 -33q-135 2 -213 97.5t-78 277.5zM381 373 q0 -53 9 -88t26.5 -55.5t42 -28.5t55.5 -8q57 0 96 25.5t68 60.5q4 29 8 55t12 61l88 365q-23 6 -47 8t-47 2q-72 0 -129 -34t-98 -89t-62.5 -126.5t-21.5 -147.5zM471 1174q43 100 100 148t143 48q33 0 60.5 -10t51.5 -21.5t46.5 -21.5t44.5 -10q27 0 47.5 14t50.5 59 l123 -73q-43 -100 -100 -148.5t-143 -48.5q-35 0 -63 10t-51.5 21.5t-45 22t-43.5 10.5q-27 0 -47.5 -14.5t-50.5 -59.5z" />
<glyph unicode="&#xe4;" d="M131 352q0 139 47 256t129 200t191.5 129t232.5 46q84 0 170 -16.5t174 -51.5l-127 -522q-8 -37 -12 -72.5t-4 -72.5q0 -59 11 -115.5t30 -112.5l-221 -36q-4 8 -10.5 20t-12.5 26.5t-10 26t-6 17.5q-41 -31 -110.5 -64t-180.5 -33q-135 2 -213 97.5t-78 277.5zM381 373 q0 -53 9 -88t26.5 -55.5t42 -28.5t55.5 -8q57 0 96 25.5t68 60.5q4 29 8 55t12 61l88 365q-23 6 -47 8t-47 2q-72 0 -129 -34t-98 -89t-62.5 -126.5t-21.5 -147.5zM485 1223q0 35 13.5 63.5t34 49t47 31.5t52.5 11q51 0 88 -33.5t37 -89.5q0 -35 -14 -62.5t-35.5 -48 t-48 -31.5t-51.5 -11q-53 0 -88 32.5t-35 88.5zM890 1223q0 70 47.5 112.5t102.5 42.5q51 0 87 -33.5t36 -89.5q0 -35 -14.5 -62.5t-36 -48t-48 -31.5t-51.5 -11q-53 0 -88 32.5t-35 88.5z" />
<glyph unicode="&#xe5;" d="M131 352q0 139 47 256t129 200t191.5 129t232.5 46q84 0 170 -16.5t174 -51.5l-127 -522q-8 -37 -12 -72.5t-4 -72.5q0 -59 11 -115.5t30 -112.5l-221 -36q-4 8 -10.5 20t-12.5 26.5t-10 26t-6 17.5q-41 -31 -110.5 -64t-180.5 -33q-135 2 -213 97.5t-78 277.5zM381 373 q0 -53 9 -88t26.5 -55.5t42 -28.5t55.5 -8q57 0 96 25.5t68 60.5q4 29 8 55t12 61l88 365q-23 6 -47 8t-47 2q-72 0 -129 -34t-98 -89t-62.5 -126.5t-21.5 -147.5zM612 1278q0 51 17.5 91t47 66.5t68.5 40t80 13.5q88 0 152.5 -53.5t64.5 -157.5q0 -102 -64.5 -155.5 t-152.5 -53.5q-41 0 -80 13.5t-68.5 40t-47 65.5t-17.5 90zM743 1278q0 -41 25.5 -63.5t56.5 -22.5q35 0 59.5 22.5t24.5 63.5q0 43 -24.5 64.5t-59.5 21.5q-31 0 -56.5 -21.5t-25.5 -64.5z" />
<glyph unicode="&#xe6;" d="M61 190q0 102 36 179t95.5 129.5t139.5 81t170 36.5q2 8 2 15.5v13.5q0 74 -32 115t-112 41q-35 0 -71.5 -14.5t-71.5 -38.5l-24 180q43 29 97 44t111 15q92 0 160 -47t90 -145q49 96 119 144t148 48q37 0 72.5 -11t63 -37t44 -67t16.5 -100q0 -102 -35 -179t-95 -129 t-140 -81t-168 -37q-2 -10 -2 -16v-15q0 -72 30.5 -112.5t110.5 -40.5q74 0 143 51l25 -178q-43 -29 -97.5 -45.5t-109.5 -16.5q-94 0 -161.5 48.5t-90.5 146.5q-49 -96 -118.5 -145.5t-147.5 -49.5q-37 0 -72.5 11.5t-63.5 37t-44.5 66.5t-16.5 102zM240 227q0 -29 12 -49 t49 -20q20 0 46 16t51.5 51t49 90.5t39.5 135.5q-53 0 -99 -17.5t-79 -48.5t-51 -72t-18 -86zM688 512q53 0 99.5 17.5t79 47t51 70.5t18.5 88q0 29 -12.5 49.5t-49.5 20.5q-20 0 -45.5 -16.5t-51 -51.5t-49 -90t-40.5 -135z" />
<glyph unicode="&#xe7;" d="M158 373q0 133 47 245.5t132 193.5t201.5 127t258.5 46q55 0 97 -4t77 -11t62.5 -16.5t53.5 -21.5l-90 -201q-33 14 -84 25.5t-116 11.5q-84 0 -154 -25.5t-122 -75t-80.5 -121t-28.5 -163.5q0 -41 10 -75t37.5 -58.5t76 -38.5t121.5 -14q80 0 148.5 15t103.5 32l25 -201 q-23 -12 -47.5 -22.5t-57 -18.5t-74.5 -14t-100 -8l-18 -31q45 -23 63.5 -53.5t18.5 -67.5q0 -84 -70.5 -130t-181.5 -46q-98 0 -176 41l53 119q23 -12 52.5 -19.5t58.5 -7.5q47 0 62 18.5t15 32.5q0 23 -11 38t-42 26l-37 12q14 23 25.5 40t24.5 34q-94 12 -158 47 t-102.5 87t-56 116.5t-17.5 136.5z" />
<glyph unicode="&#xe8;" d="M154 375q0 119 39.5 230.5t116.5 195.5t186.5 135t251.5 51q141 0 231 -69.5t90 -194.5q0 -104 -51 -177t-141.5 -118t-212.5 -65.5t-263 -20.5q0 -37 12.5 -66.5t40 -50t73.5 -32t116 -11.5q82 0 155.5 17.5t108.5 33.5l17 -190q-49 -25 -137.5 -46.5t-192.5 -21.5 q-117 0 -201 30t-137 83t-77.5 126t-24.5 161zM403 516q129 0 212 16.5t130.5 42t65.5 56.5t18 57q0 47 -34 72.5t-95 25.5q-94 0 -179 -64.5t-118 -205.5zM524 1223l125 192l324 -241l-92 -138z" />
<glyph unicode="&#xe9;" d="M154 375q0 119 39.5 230.5t116.5 195.5t186.5 135t251.5 51q141 0 231 -69.5t90 -194.5q0 -104 -51 -177t-141.5 -118t-212.5 -65.5t-263 -20.5q0 -37 12.5 -66.5t40 -50t73.5 -32t116 -11.5q82 0 155.5 17.5t108.5 33.5l17 -190q-49 -25 -137.5 -46.5t-192.5 -21.5 q-117 0 -201 30t-137 83t-77.5 126t-24.5 161zM403 516q129 0 212 16.5t130.5 42t65.5 56.5t18 57q0 47 -34 72.5t-95 25.5q-94 0 -179 -64.5t-118 -205.5zM585 1174l324 241l125 -192l-357 -187z" />
<glyph unicode="&#xea;" d="M154 375q0 119 39.5 230.5t116.5 195.5t186.5 135t251.5 51q141 0 231 -69.5t90 -194.5q0 -104 -51 -177t-141.5 -118t-212.5 -65.5t-263 -20.5q0 -37 12.5 -66.5t40 -50t73.5 -32t116 -11.5q82 0 155.5 17.5t108.5 33.5l17 -190q-49 -25 -137.5 -46.5t-192.5 -21.5 q-117 0 -201 30t-137 83t-77.5 126t-24.5 161zM403 516q129 0 212 16.5t130.5 42t65.5 56.5t18 57q0 47 -34 72.5t-95 25.5q-94 0 -179 -64.5t-118 -205.5zM493 1157l328 258l225 -276l-111 -95l-151 142l-207 -142z" />
<glyph unicode="&#xeb;" d="M154 375q0 119 39.5 230.5t116.5 195.5t186.5 135t251.5 51q141 0 231 -69.5t90 -194.5q0 -104 -51 -177t-141.5 -118t-212.5 -65.5t-263 -20.5q0 -37 12.5 -66.5t40 -50t73.5 -32t116 -11.5q82 0 155.5 17.5t108.5 33.5l17 -190q-49 -25 -137.5 -46.5t-192.5 -21.5 q-117 0 -201 30t-137 83t-77.5 126t-24.5 161zM403 516q129 0 212 16.5t130.5 42t65.5 56.5t18 57q0 47 -34 72.5t-95 25.5q-94 0 -179 -64.5t-118 -205.5zM428 1223q0 35 13.5 63.5t34 49t47 31.5t52.5 11q51 0 88 -33.5t37 -89.5q0 -35 -14 -62.5t-35.5 -48t-48 -31.5 t-51.5 -11q-53 0 -88 32.5t-35 88.5zM833 1223q0 70 47.5 112.5t102.5 42.5q51 0 87 -33.5t36 -89.5q0 -35 -14.5 -62.5t-36 -48t-48 -31.5t-51.5 -11q-53 0 -88 32.5t-35 88.5z" />
<glyph unicode="&#xec;" d="M227 754l52 209h518l-140 -588q-12 -43 -12 -76q0 -102 105 -102q35 0 82 7t104 27l4 -204q-76 -29 -142.5 -39.5t-123.5 -10.5q-145 0 -215 71t-70 200q0 68 23 158l82 348h-267zM417 1223l125 192l324 -241l-92 -138z" />
<glyph unicode="&#xed;" d="M227 754l52 209h518l-140 -588q-12 -43 -12 -76q0 -102 105 -102q35 0 82 7t104 27l4 -204q-76 -29 -142.5 -39.5t-123.5 -10.5q-145 0 -215 71t-70 200q0 68 23 158l82 348h-267zM495 1174l324 241l125 -192l-357 -187z" />
<glyph unicode="&#xee;" d="M227 754l52 209h518l-140 -588q-12 -43 -12 -76q0 -102 105 -102q35 0 82 7t104 27l4 -204q-76 -29 -142.5 -39.5t-123.5 -10.5q-145 0 -215 71t-70 200q0 68 23 158l82 348h-267zM403 1157l328 258l225 -276l-111 -95l-151 142l-207 -142z" />
<glyph unicode="&#xef;" d="M227 754l52 209h518l-140 -588q-12 -43 -12 -76q0 -102 105 -102q35 0 82 7t104 27l4 -204q-76 -29 -142.5 -39.5t-123.5 -10.5q-145 0 -215 71t-70 200q0 68 23 158l82 348h-267zM356 1223q0 35 13.5 63.5t34 49t47 31.5t52.5 11q51 0 88 -33.5t37 -89.5 q0 -35 -14 -62.5t-35.5 -48t-48 -31.5t-51.5 -11q-53 0 -88 32.5t-35 88.5zM761 1223q0 70 47.5 112.5t102.5 42.5q51 0 87 -33.5t36 -89.5q0 -35 -14.5 -62.5t-36 -48t-48 -31.5t-51.5 -11q-53 0 -88 32.5t-35 88.5z" />
<glyph unicode="&#xf0;" d="M129 319q0 104 32 203t94 174.5t154.5 120.5t213.5 45q55 0 103 -14t81 -39q0 47 -5 108.5t-22 108.5l-207 -63l-18 151l162 51q-18 33 -54 72t-71 63l168 119q53 -37 102 -84t82 -100l227 72l29 -152l-201 -61q35 -145 35 -293q0 -82 -10 -170t-33.5 -174t-61.5 -166 t-95 -148q-66 -78 -159 -124t-216 -46q-86 0 -147.5 29t-102.5 76t-60.5 110.5t-19.5 130.5zM375 340q0 -61 25.5 -104t82.5 -43q70 0 119 43t81 105t51.5 133t29.5 128q-29 35 -71 47.5t-83 12.5q-59 0 -103 -30t-72.5 -77t-44 -104.5t-15.5 -110.5z" />
<glyph unicode="&#xf1;" d="M90 0l221 922q63 20 166 40.5t219 20.5q172 0 247 -73.5t75 -204.5q0 -35 -5 -76t-16 -86l-133 -543h-252l125 510q6 33 14.5 67.5t8.5 69.5q0 47 -25.5 83t-93.5 36q-29 0 -59.5 -5t-59.5 -18l-180 -743h-252zM412 1174q43 100 100 148t143 48q33 0 60.5 -10t51.5 -21.5 t46.5 -21.5t44.5 -10q27 0 47.5 14t50.5 59l123 -73q-43 -100 -100 -148.5t-143 -48.5q-35 0 -63 10t-51.5 21.5t-45 22t-43.5 10.5q-27 0 -47.5 -14.5t-50.5 -59.5z" />
<glyph unicode="&#xf2;" d="M133 334q0 123 37 239.5t108.5 208.5t178 148.5t245.5 56.5q150 0 241 -91t91 -271q0 -121 -34.5 -238t-105.5 -209t-176.5 -148.5t-244.5 -56.5q-172 0 -256 98.5t-84 262.5zM385 399q0 -96 27.5 -151t111.5 -55q61 0 108.5 36.5t81.5 92t51 120t17 121.5 q0 96 -27.5 151.5t-113.5 55.5q-59 0 -107.5 -37t-81 -92t-50 -119.5t-17.5 -122.5zM487 1223l125 192l324 -241l-92 -138z" />
<glyph unicode="&#xf3;" d="M133 334q0 123 37 239.5t108.5 208.5t178 148.5t245.5 56.5q150 0 241 -91t91 -271q0 -121 -34.5 -238t-105.5 -209t-176.5 -148.5t-244.5 -56.5q-172 0 -256 98.5t-84 262.5zM385 399q0 -96 27.5 -151t111.5 -55q61 0 108.5 36.5t81.5 92t51 120t17 121.5 q0 96 -27.5 151.5t-113.5 55.5q-59 0 -107.5 -37t-81 -92t-50 -119.5t-17.5 -122.5zM545 1174l324 241l125 -192l-357 -187z" />
<glyph unicode="&#xf4;" d="M133 334q0 123 37 239.5t108.5 208.5t178 148.5t245.5 56.5q150 0 241 -91t91 -271q0 -121 -34.5 -238t-105.5 -209t-176.5 -148.5t-244.5 -56.5q-172 0 -256 98.5t-84 262.5zM385 399q0 -96 27.5 -151t111.5 -55q61 0 108.5 36.5t81.5 92t51 120t17 121.5 q0 96 -27.5 151.5t-113.5 55.5q-59 0 -107.5 -37t-81 -92t-50 -119.5t-17.5 -122.5zM473 1157l328 258l225 -276l-111 -95l-151 142l-207 -142z" />
<glyph unicode="&#xf5;" d="M133 334q0 123 37 239.5t108.5 208.5t178 148.5t245.5 56.5q150 0 241 -91t91 -271q0 -121 -34.5 -238t-105.5 -209t-176.5 -148.5t-244.5 -56.5q-172 0 -256 98.5t-84 262.5zM385 399q0 -96 27.5 -151t111.5 -55q61 0 108.5 36.5t81.5 92t51 120t17 121.5 q0 96 -27.5 151.5t-113.5 55.5q-59 0 -107.5 -37t-81 -92t-50 -119.5t-17.5 -122.5zM412 1174q43 100 100 148t143 48q33 0 60.5 -10t51.5 -21.5t46.5 -21.5t44.5 -10q27 0 47.5 14t50.5 59l123 -73q-43 -100 -100 -148.5t-143 -48.5q-35 0 -63 10t-51.5 21.5t-45 22 t-43.5 10.5q-27 0 -47.5 -14.5t-50.5 -59.5z" />
<glyph unicode="&#xf6;" d="M133 334q0 123 37 239.5t108.5 208.5t178 148.5t245.5 56.5q150 0 241 -91t91 -271q0 -121 -34.5 -238t-105.5 -209t-176.5 -148.5t-244.5 -56.5q-172 0 -256 98.5t-84 262.5zM385 399q0 -96 27.5 -151t111.5 -55q61 0 108.5 36.5t81.5 92t51 120t17 121.5 q0 96 -27.5 151.5t-113.5 55.5q-59 0 -107.5 -37t-81 -92t-50 -119.5t-17.5 -122.5zM426 1223q0 35 13.5 63.5t34 49t47 31.5t52.5 11q51 0 88 -33.5t37 -89.5q0 -35 -14 -62.5t-35.5 -48t-48 -31.5t-51.5 -11q-53 0 -88 32.5t-35 88.5zM831 1223q0 70 47.5 112.5 t102.5 42.5q51 0 87 -33.5t36 -89.5q0 -35 -14.5 -62.5t-36 -48t-48 -31.5t-51.5 -11q-53 0 -88 32.5t-35 88.5z" />
<glyph unicode="&#xf7;" d="M166 434l49 207h860l-49 -207h-860zM373 145q0 80 50 125t116 45q57 0 95 -30.5t38 -100.5q0 -80 -50.5 -125t-115.5 -45q-59 0 -96 31t-37 100zM557 891q0 80 50 125t116 45q57 0 95 -31t38 -100q0 -80 -50 -125t-116 -45q-59 0 -96 30.5t-37 100.5z" />
<glyph unicode="&#xf8;" d="M143 6l95 107q-39 66 -47.5 126t-8.5 119q0 125 42 239t116 201t174 138t217 51q47 0 93 -6t98 -31l84 99l118 -99l-92 -104q29 -51 40 -109.5t11 -130.5q0 -109 -34.5 -221.5t-103 -203.5t-170 -149.5t-234.5 -58.5q-35 0 -59.5 1t-45 5.5t-41 11.5t-45.5 19l-88 -102z M422 367l356 393q-33 20 -80 20q-72 0 -124 -37.5t-85.5 -97t-50 -133.5t-16.5 -145zM487 205q20 -12 42 -16.5t44 -4.5q70 0 121 37t84 95.5t48.5 133t15.5 150.5z" />
<glyph unicode="&#xf9;" d="M156 268q0 94 28 219l115 476h252l-109 -459q-16 -61 -24 -111.5t-8 -89.5q0 -106 102 -106q57 0 91 23.5t65 58.5q4 29 7 55t13 61l135 568h252l-137 -570q-8 -37 -13 -72.5t-5 -72.5q0 -59 12 -115.5t31 -112.5l-222 -36l-10 20t-12 26.5t-10 26t-7 17.5 q-41 -31 -106 -64t-143 -33q-166 0 -231.5 78t-65.5 213zM454 1223l125 192l324 -241l-92 -138z" />
<glyph unicode="&#xfa;" d="M156 268q0 94 28 219l115 476h252l-109 -459q-16 -61 -24 -111.5t-8 -89.5q0 -106 102 -106q57 0 91 23.5t65 58.5q4 29 7 55t13 61l135 568h252l-137 -570q-8 -37 -13 -72.5t-5 -72.5q0 -59 12 -115.5t31 -112.5l-222 -36l-10 20t-12 26.5t-10 26t-7 17.5 q-41 -31 -106 -64t-143 -33q-166 0 -231.5 78t-65.5 213zM532 1174l324 241l125 -192l-357 -187z" />
<glyph unicode="&#xfb;" d="M156 268q0 94 28 219l115 476h252l-109 -459q-16 -61 -24 -111.5t-8 -89.5q0 -106 102 -106q57 0 91 23.5t65 58.5q4 29 7 55t13 61l135 568h252l-137 -570q-8 -37 -13 -72.5t-5 -72.5q0 -59 12 -115.5t31 -112.5l-222 -36l-10 20t-12 26.5t-10 26t-7 17.5 q-41 -31 -106 -64t-143 -33q-166 0 -231.5 78t-65.5 213zM459 1157l328 258l225 -276l-111 -95l-151 142l-207 -142z" />
<glyph unicode="&#xfc;" d="M156 268q0 94 28 219l115 476h252l-109 -459q-16 -61 -24 -111.5t-8 -89.5q0 -106 102 -106q57 0 91 23.5t65 58.5q4 29 7 55t13 61l135 568h252l-137 -570q-8 -37 -13 -72.5t-5 -72.5q0 -59 12 -115.5t31 -112.5l-222 -36l-10 20t-12 26.5t-10 26t-7 17.5 q-41 -31 -106 -64t-143 -33q-166 0 -231.5 78t-65.5 213zM393 1223q0 35 13.5 63.5t34 49t47 31.5t52.5 11q51 0 88 -33.5t37 -89.5q0 -35 -14 -62.5t-35.5 -48t-48 -31.5t-51.5 -11q-53 0 -88 32.5t-35 88.5zM798 1223q0 70 47.5 112.5t102.5 42.5q51 0 87 -33.5t36 -89.5 q0 -35 -14.5 -62.5t-36 -48t-48 -31.5t-51.5 -11q-53 0 -88 32.5t-35 88.5z" />
<glyph unicode="&#xfd;" d="M-88 -301l80 201q33 -14 61.5 -21.5t73.5 -7.5q150 0 248 147q-49 197 -89 427.5t-55 517.5h263q2 -74 7 -162t13 -178.5t19.5 -178.5t25.5 -159q94 143 166 310t131 368h268q-53 -141 -104 -262t-105.5 -230t-114 -208t-126.5 -195q-51 -74 -109.5 -147t-127 -132 t-150.5 -96t-178 -37q-127 0 -197 43zM530 1174l324 241l125 -192l-357 -187z" />
<glyph unicode="&#xfe;" d="M-4 -338l414 1716l262 43l-113 -463q35 10 73 17.5t73 7.5q166 0 248.5 -97.5t82.5 -250.5q0 -127 -36.5 -246t-111.5 -210t-189.5 -145t-268.5 -54q-41 0 -63.5 2t-38.5 6l-80 -326h-252zM379 201q10 -4 22.5 -4h26.5q84 0 151.5 33.5t113.5 91t70.5 134t24.5 160.5 q0 31 -6 58.5t-22.5 49t-47 35t-79.5 13.5q-41 0 -69.5 -6t-51.5 -10z" />
<glyph unicode="&#xff;" d="M-88 -301l80 201q33 -14 61.5 -21.5t73.5 -7.5q150 0 248 147q-49 197 -89 427.5t-55 517.5h263q2 -74 7 -162t13 -178.5t19.5 -178.5t25.5 -159q94 143 166 310t131 368h268q-53 -141 -104 -262t-105.5 -230t-114 -208t-126.5 -195q-51 -74 -109.5 -147t-127 -132 t-150.5 -96t-178 -37q-127 0 -197 43zM391 1223q0 35 13.5 63.5t34 49t47 31.5t52.5 11q51 0 88 -33.5t37 -89.5q0 -35 -14 -62.5t-35.5 -48t-48 -31.5t-51.5 -11q-53 0 -88 32.5t-35 88.5zM796 1223q0 70 47.5 112.5t102.5 42.5q51 0 87 -33.5t36 -89.5q0 -35 -14.5 -62.5 t-36 -48t-48 -31.5t-51.5 -11q-53 0 -88 32.5t-35 88.5z" />
<glyph unicode="&#x152;" d="M111 356q0 84 13 186.5t42 205t76 198.5t113.5 170t155.5 119t204 45q31 0 64.5 -4t60.5 -8h407l-49 -209h-231l-70 -285h184l-49 -209h-184l-86 -356h258l-49 -209h-434q-27 -6 -53.5 -8t-55.5 -2q-154 0 -235.5 95t-81.5 271zM346 373q0 -82 26.5 -126t96.5 -44 q31 0 68 10l202 844q-31 10 -63 10q-76 0 -136.5 -73.5t-103.5 -181t-66.5 -227.5t-23.5 -212z" />
<glyph unicode="&#x153;" d="M74 274q0 156 36.5 287t98 226.5t142.5 147.5t167 52q156 0 197 -129q43 55 105.5 92t121.5 37q37 0 73 -11t62.5 -37t43 -67t16.5 -100q0 -102 -35 -179t-95.5 -129t-140.5 -81t-168 -37q-2 -10 -2 -16v-15q0 -72 32 -112.5t112 -40.5q70 0 143 51l25 -178 q-45 -29 -98.5 -45.5t-110.5 -16.5q-98 0 -155.5 43t-86.5 113q-41 -78 -110.5 -117t-141.5 -39q-57 0 -100 23.5t-73 63.5t-44 95.5t-14 118.5zM268 311q0 -57 19.5 -92t60.5 -35q33 0 70 39t67.5 105.5t50 156t19.5 189.5q0 55 -20.5 79.5t-49.5 24.5q-35 0 -72.5 -35.5 t-70.5 -98t-53.5 -148.5t-20.5 -185zM711 512q55 0 100 17.5t79 47t52.5 70.5t18.5 88q0 29 -12.5 49.5t-51.5 20.5q-20 0 -45 -16.5t-51.5 -51.5t-50 -90t-39.5 -135z" />
<glyph unicode="&#x178;" d="M291 1268h248q12 -147 39.5 -296t58.5 -276q33 47 80 118t96 149.5t97 158.5t85 146h271q-63 -104 -126 -202.5t-128.5 -195t-138 -191.5t-154.5 -196l-117 -483h-252l115 481q-63 199 -104.5 388.5t-69.5 398.5zM481 1508q0 35 13.5 63.5t34 49t47 31.5t52.5 11 q51 0 88 -33.5t37 -89.5q0 -35 -14 -62.5t-35.5 -48t-48 -31.5t-51.5 -11q-53 0 -88 32.5t-35 88.5zM886 1508q0 70 47.5 112.5t102.5 42.5q51 0 87 -33.5t36 -89.5q0 -35 -14.5 -62.5t-36 -48t-48 -31.5t-51.5 -11q-53 0 -88 32.5t-35 88.5z" />
<glyph unicode="&#x2c6;" d="M473 1157l328 258l225 -276l-111 -95l-151 142l-207 -142z" />
<glyph unicode="&#x2dc;" d="M412 1174q43 100 100 148t143 48q33 0 60.5 -10t51.5 -21.5t46.5 -21.5t44.5 -10q27 0 47.5 14t50.5 59l123 -73q-43 -100 -100 -148.5t-143 -48.5q-35 0 -63 10t-51.5 21.5t-45 22t-43.5 10.5q-27 0 -47.5 -14.5t-50.5 -59.5z" />
<glyph unicode="&#x2000;" horiz-adv-x="850" />
<glyph unicode="&#x2001;" horiz-adv-x="1700" />
<glyph unicode="&#x2002;" horiz-adv-x="850" />
<glyph unicode="&#x2003;" horiz-adv-x="1700" />
<glyph unicode="&#x2004;" horiz-adv-x="566" />
<glyph unicode="&#x2005;" horiz-adv-x="425" />
<glyph unicode="&#x2006;" horiz-adv-x="283" />
<glyph unicode="&#x2007;" horiz-adv-x="283" />
<glyph unicode="&#x2008;" horiz-adv-x="212" />
<glyph unicode="&#x2009;" horiz-adv-x="340" />
<glyph unicode="&#x200a;" horiz-adv-x="94" />
<glyph unicode="&#x2010;" d="M285 401l59 248h561l-61 -248h-559z" />
<glyph unicode="&#x2011;" d="M285 401l59 248h561l-61 -248h-559z" />
<glyph unicode="&#x2012;" d="M285 401l59 248h561l-61 -248h-559z" />
<glyph unicode="&#x2013;" d="M180 453l47 188h805l-47 -188h-805z" />
<glyph unicode="&#x2014;" d="M70 453l45 188h1024l-45 -188h-1024z" />
<glyph unicode="&#x2018;" d="M535 1051q0 76 28.5 153.5t88 141t149.5 107.5t215 52l16 -162q-43 -2 -87 -11t-82 -26.5t-65.5 -40t-37.5 -53.5q61 -8 98 -48t37 -105q0 -43 -15.5 -81t-43 -65.5t-64.5 -43t-80 -15.5q-80 0 -118.5 56.5t-38.5 140.5z" />
<glyph unicode="&#x2019;" d="M485 1016q43 2 86 11t81 26.5t65.5 40t38.5 53.5q-59 8 -96 48t-37 105q0 88 57 146.5t143 58.5q82 0 121 -56t39 -142q0 -76 -28.5 -153t-88 -140.5t-150.5 -107.5t-214 -52z" />
<glyph unicode="&#x201a;" d="M197 -147q43 2 86 11t80.5 26.5t65.5 40t38 53.5q-61 8 -97 48t-36 105q0 88 57.5 146.5t143.5 58.5q80 0 119.5 -48t39.5 -114q0 -90 -28.5 -174t-88 -151.5t-150.5 -111.5t-214 -52z" />
<glyph unicode="&#x201c;" d="M330 1034q0 68 24.5 134.5t74.5 119.5t128 88t186 43l15 -135q-37 -4 -75 -12t-69.5 -21.5t-55 -34t-32.5 -45.5q53 -6 85 -42.5t32 -92.5q0 -76 -50 -127t-124 -51q-72 0 -105.5 50t-33.5 126zM809 1034q0 68 23.5 134.5t74.5 119.5t128 88t186 43l14 -135 q-37 -4 -74 -12t-68.5 -21.5t-55 -34t-31.5 -45.5q53 -6 83.5 -42.5t30.5 -92.5q0 -76 -50 -127t-124 -51q-72 0 -104.5 50t-32.5 126z" />
<glyph unicode="&#x201d;" d="M272 993q37 2 74 10.5t68.5 21.5t55.5 33.5t32 45.5q-53 8 -85 45t-32 90q0 78 51 129t125 51q72 0 104.5 -51t32.5 -125q0 -68 -23.5 -134.5t-74.5 -119.5t-129 -88t-184 -43zM750 993q37 2 74.5 10.5t69.5 21.5t54.5 33.5t32.5 45.5q-53 8 -86 45t-33 90q0 78 51.5 129 t124.5 51q72 0 106 -51t34 -125q0 -68 -25 -134.5t-75 -119.5t-129 -88t-185 -43z" />
<glyph unicode="&#x201e;" d="M14 -158q37 2 74 11.5t68.5 22.5t55.5 33.5t32 45.5q-53 6 -84 43t-31 92q0 76 50 127t124 51q72 0 104.5 -50t32.5 -124q0 -70 -23.5 -135t-74.5 -119.5t-129 -89.5t-184 -43zM492 -158q37 2 74.5 11.5t69.5 22.5t54.5 33.5t32.5 45.5q-53 6 -85 43t-32 92 q0 76 50.5 127t123.5 51q72 0 106 -50t34 -124q0 -70 -25 -135t-75 -119.5t-129 -89.5t-185 -43z" />
<glyph unicode="&#x2022;" d="M356 643q0 57 19.5 110.5t55.5 94.5t87 64.5t117 23.5q63 0 115.5 -23.5t88 -64.5t55 -94.5t19.5 -110.5q0 -59 -19.5 -111.5t-55 -93.5t-88 -64.5t-115.5 -23.5q-66 0 -117 23.5t-87 64.5t-55.5 93.5t-19.5 111.5z" />
<glyph unicode="&#x2026;" d="M51 90q0 70 39 111t92 41q49 0 80 -29t31 -84q0 -72 -39 -113t-92 -41q-51 0 -81 29t-30 86zM391 90q0 70 39 111t92 41q51 0 81 -29t30 -84q0 -72 -39 -113t-92 -41q-49 0 -80 29t-31 86zM729 90q0 70 40 111t93 41q49 0 79 -29t30 -84q0 -72 -39 -113t-92 -41 q-49 0 -80 29t-31 86z" />
<glyph unicode="&#x202f;" horiz-adv-x="340" />
<glyph unicode="&#x2039;" d="M338 530l401 428l172 -102l-286 -360l131 -332l-183 -84z" />
<glyph unicode="&#x203a;" d="M268 182l287 361l-131 331l182 84l236 -450l-402 -428z" />
<glyph unicode="&#x205f;" horiz-adv-x="425" />
<glyph unicode="&#x20ac;" d="M129 406l41 167h119q4 39 11 72t15 66h-116l41 168h127q41 94 96 171.5t131 132t175 84t230 29.5q117 0 240 -41l-90 -198q-41 16 -91 23t-91 7q-133 0 -214 -55t-137 -153h435l-68 -168h-422q-10 -29 -16 -65t-10 -73h389l-70 -167h-326q10 -127 70.5 -173.5 t155.5 -46.5q53 0 117.5 11.5t119.5 31.5l10 -200q-66 -27 -145.5 -41.5t-150.5 -14.5q-84 0 -160 23.5t-133.5 75t-92 134.5t-36.5 200h-154z" />
<glyph unicode="&#x2122;" d="M238 1165v103h380v-103h-131v-434h-118v434h-131zM657 731q6 102 12.5 178t12.5 137.5t14.5 113.5t18.5 108h108l92 -279l97 279h110q8 -55 15.5 -108.5t13.5 -115t12 -137.5t13 -176h-119q0 8 -1 53t-2 103.5t-3 120t-4 102.5l-89 -238h-90l-82 238q-2 -41 -4 -102.5 t-3 -120t-2 -103.5t-1 -53h-119z" />
<glyph unicode="&#xe000;" horiz-adv-x="962" d="M0 0v963h963v-963h-963z" />
<glyph unicode="&#xfb01;" d="M-219 -303l61 201q23 -10 49.5 -18.5t61.5 -8.5q37 0 63.5 14.5t44 39t27.5 56t18 68.5l146 705h-119l51 209h111l24 106q25 106 67 174t93 107t109.5 54t120.5 15q51 0 89 -5t83 -21l-90 -207q-29 10 -47.5 14t-41.5 4q-78 0 -111.5 -49t-51.5 -137l-11 -55h226 l-52 -209h-215l-131 -654q-43 -211 -135 -327.5t-256 -116.5q-57 0 -103 11t-81 30zM664 0l231 963h235l-233 -963h-233zM913 1223q0 39 14.5 72.5t38 56t54.5 36t63 13.5q59 0 103.5 -35t44.5 -113q0 -37 -15.5 -69.5t-40 -55t-55 -36t-61.5 -13.5q-66 0 -106 35t-40 109z " />
<glyph unicode="&#xfb02;" d="M-219 -303l61 201q23 -10 49.5 -18.5t61.5 -8.5q37 0 63.5 14.5t44 39t27.5 56t18 68.5l146 705h-119l51 209h111l24 106q25 106 67 174t93 107t109.5 54t120.5 15q51 0 89 -5t83 -21l-90 -207q-29 10 -47.5 14t-41.5 4q-78 0 -111.5 -49t-51.5 -137l-11 -55h226 l-52 -209h-215l-131 -654q-43 -211 -135 -327.5t-256 -116.5q-57 0 -103 11t-81 30zM727 240q0 70 23 163l233 973l246 43l-254 -1052q-10 -41 -10 -70q0 -35 18 -58.5t70 -31.5l-54 -225q-154 18 -213 85.5t-59 172.5z" />
</font>
</defs>
</svg>
