<?xml version="1.0" standalone="no"?>
<!DOCTYPE svg PUBLIC "-//W3C//DTD SVG 1.1//EN" "http://www.w3.org/Graphics/SVG/1.1/DTD/svg11.dtd" >
<svg xmlns="http://www.w3.org/2000/svg">
<metadata></metadata>
<defs>
<font id="ubuntu_monoitalic" horiz-adv-x="1024" >
<font-face units-per-em="2048" ascent="1638" descent="-410" />
<missing-glyph horiz-adv-x="500" />
<glyph unicode="&#xd;" />
<glyph />
<glyph />
<glyph unicode=" " />
<glyph unicode="!" d="M354 98q0 74 42 115t102 41q53 0 89 -32t36 -93q0 -72 -46.5 -113t-101.5 -41q-53 0 -87 31t-34 92zM500 432q8 61 15 117.5t16.5 114t21.5 121t31 139.5l82 344h182l-82 -344q-18 -76 -35.5 -139.5t-36 -121t-38 -113.5t-40.5 -118h-116z" />
<glyph unicode="&#x22;" d="M453 881q10 96 27.5 211.5t39.5 207.5l21 91h157l-22 -93q-23 -90 -59.5 -205.5t-77.5 -211.5h-86zM793 881q8 96 24.5 211.5t38.5 207.5l23 91h155l-20 -93q-23 -90 -59.5 -205.5t-75.5 -211.5h-86z" />
<glyph unicode="#" d="M82 0l143 334h-131l33 137h156l141 326h-219l33 135h249l142 336h153l-141 -336h225l144 336h153l-143 -336h133l-33 -135h-159l-142 -326h221l-32 -137h-248l-146 -334h-153l145 334h-227l-146 -334h-151zM438 471h226l141 326h-225z" />
<glyph unicode="$" d="M143 123l82 135q33 -20 101 -49t174 -29q53 0 105 9.5t93 33t67 61.5t26 97q0 41 -16.5 69.5t-44.5 52t-67.5 43t-84.5 42.5q-41 18 -80 41.5t-70 57.5t-50.5 81t-19.5 113q0 131 89.5 219t263.5 110l49 209h149l-49 -205q78 -8 140.5 -31.5t97.5 -45.5l-78 -127 q-31 23 -90.5 42t-147.5 19q-53 0 -100 -10t-82 -31.5t-55.5 -55.5t-20.5 -79q0 -76 46 -116t139 -85q51 -23 96 -47t79 -59t54 -82t20 -111q0 -80 -27.5 -142.5t-78.5 -107.5t-120.5 -72.5t-156.5 -35.5l-53 -236h-149l57 238q-94 4 -174 32.5t-113 51.5z" />
<glyph unicode="%" d="M10 0l1080 1268h147l-1079 -1268h-148zM203 874q0 61 15 135t50 136.5t89.5 105.5t134.5 43q176 0 176 -211q0 -102 -23.5 -181t-63.5 -133t-91.5 -83t-108.5 -29q-86 0 -132 55.5t-46 161.5zM330 891q0 -57 16 -91t53 -34q39 0 66 36t44 84t24.5 99t7.5 82 q0 53 -16.5 87t-51.5 34q-27 0 -52.5 -23.5t-46 -64.5t-32.5 -95.5t-12 -113.5zM580 188q0 61 15 135t50 136.5t89 105.5t134 43q176 0 176 -211q0 -102 -23.5 -181t-63 -133t-91 -82t-108.5 -28q-86 0 -132 54.5t-46 160.5zM707 205q0 -57 16 -91t53 -34q39 0 65.5 36 t44 84t25 99t7.5 82q0 53 -16.5 87t-51.5 34q-27 0 -52.5 -23.5t-46 -64.5t-32.5 -95.5t-12 -113.5z" />
<glyph unicode="&#x26;" d="M117 252q0 49 13 103.5t43 107.5t80 104t124 99l41 26q-31 57 -49.5 112.5t-18.5 110.5q0 90 31 161t83 120t120.5 74.5t142.5 25.5q45 0 86 -13t71.5 -38.5t48 -65.5t17.5 -94q0 -49 -16 -103t-53 -108.5t-98.5 -107.5t-149.5 -98l-23 -11l49 -79q25 -41 50.5 -81 t52.5 -85q57 113 100 270l144 -18q-35 -121 -78 -217.5t-90 -172.5q29 -59 53 -124.5t47 -149.5h-176q-16 70 -37 135q-82 -80 -169 -115.5t-175 -35.5q-59 0 -107.5 20.5t-83 57t-54 86t-19.5 104.5zM291 276q0 -66 34.5 -108.5t108.5 -42.5q57 0 116.5 34t119.5 105 q-45 92 -95.5 171t-95.5 153l-18 -13q-53 -33 -86 -67.5t-51.5 -71.5t-25.5 -77t-7 -83zM510 918q0 -41 9 -77t32 -81l33 16q51 27 91 62.5t66.5 75.5t40 80t13.5 75q0 47 -32 70.5t-73 23.5q-33 0 -65.5 -14t-58 -45t-41 -77t-15.5 -109z" />
<glyph unicode="'" d="M614 844q4 47 11.5 107.5t17.5 123t21.5 121.5t23.5 104l21 91h176l-23 -93q-10 -45 -26.5 -103t-37 -120.5t-41 -123t-38.5 -107.5h-105z" />
<glyph unicode="(" d="M299 322q0 162 51 320.5t144.5 304t223.5 271t288 218.5l65 -131q-133 -84 -244.5 -195t-193.5 -236.5t-127 -263t-45 -278.5q0 -147 53 -290.5t176 -272.5l-110 -111q-147 147 -214 317t-67 347z" />
<glyph unicode=")" d="M115 -211q133 84 245.5 194.5t193.5 236.5t127 263.5t46 278.5q0 147 -54.5 290.5t-174.5 272.5l108 111q147 -147 215 -317.5t68 -346.5q0 -162 -51.5 -320.5t-144.5 -304t-223 -271.5t-290 -218z" />
<glyph unicode="*" d="M283 915l53 168l14 -6q72 -29 144.5 -63.5t138.5 -71.5q-16 74 -29.5 154t-13.5 157v15h176v-15q0 -78 -13.5 -157.5t-27.5 -153.5q66 39 137.5 73t141.5 60l14 6l53 -168l-12 -4q-72 -23 -151.5 -35t-155.5 -20q57 -51 115.5 -107.5t99.5 -119.5l8 -11l-144 -104l-8 12 q-45 61 -79.5 134t-65.5 141q-31 -68 -67 -140.5t-83 -134.5l-8 -10l-141 102l8 13q47 63 103.5 118.5t113.5 106.5q-76 10 -155.5 21.5t-151.5 35.5z" />
<glyph unicode="+" d="M176 467l35 143h336l92 377h156l-93 -377h330l-35 -143h-329l-93 -379h-153l90 379h-336z" />
<glyph unicode="," d="M215 -162q35 2 75 12.5t75.5 28t64.5 43t41 62.5q-57 8 -86 48t-29 89q0 70 44 117t122 47q68 0 104 -48.5t36 -119.5q0 -59 -25 -125t-77 -125.5t-134 -103.5t-195 -58z" />
<glyph unicode="-" d="M360 440l39 160h449l-37 -160h-451z" />
<glyph unicode="." d="M356 113q0 86 48.5 131t113.5 45q57 0 98 -36t41 -108q0 -39 -14 -69.5t-37.5 -53t-53 -35t-60.5 -12.5q-57 0 -96.5 35t-39.5 103z" />
<glyph unicode="/" d="M-35 -338l998 1770h170l-996 -1770h-172z" />
<glyph unicode="0" d="M172 352q0 90 16.5 195.5t49 210t82 202t116 172t149.5 119.5t185 45q156 0 229.5 -95.5t73.5 -285.5q0 -90 -16.5 -194.5t-49 -209.5t-81.5 -201.5t-116 -171.5t-151 -120t-184 -45q-156 0 -229.5 95.5t-73.5 283.5zM344 375q0 -137 34 -194.5t118 -57.5 q86 0 160.5 74.5t129 188.5t85 250t30.5 259q0 137 -32.5 194.5t-118.5 57.5t-160 -75t-129 -189.5t-86 -249.5t-31 -258zM504 641q0 72 40 112t93 40q47 0 81 -32t34 -91q0 -66 -42.5 -106t-95.5 -40q-47 0 -78.5 29t-31.5 88z" />
<glyph unicode="1" d="M188 0l35 143h275l209 873q-25 -18 -61 -40t-77 -42.5t-85 -38.5t-85 -31l-28 142q115 41 227.5 103t216.5 159h121l-270 -1125h237l-35 -143h-680z" />
<glyph unicode="2" d="M141 0q14 98 51 176t89.5 143.5t116 121t130.5 106.5q72 53 138.5 103t118 102.5t82 109t30.5 123.5q0 76 -41 120t-133 44q-51 0 -97 -13.5t-83 -32t-64.5 -39t-44.5 -36.5l-59 131q25 25 63.5 48.5t86.5 44t103.5 32.5t114.5 12q88 0 151.5 -24.5t102.5 -64.5t57.5 -92 t18.5 -105q0 -96 -30.5 -170t-83 -135.5t-123 -115.5t-148.5 -112q-47 -35 -97 -75t-96 -83t-81 -88t-49 -88h550l-34 -143h-740z" />
<glyph unicode="3" d="M123 47l63 146q27 -16 92.5 -43t174.5 -27q74 0 136 17.5t108 52t72 87t26 121.5q0 109 -79 157t-212 48h-37l33 137h55q59 0 117.5 16.5t104.5 48.5t75 79t29 108q0 78 -47.5 117t-133.5 39q-78 0 -141 -25.5t-108 -54.5l-41 133q25 16 59.5 32.5t76.5 30t88 21.5t93 8 q86 0 147.5 -21.5t101.5 -60t58.5 -90t18.5 -110.5q0 -123 -70 -207t-190 -131q31 -12 62.5 -36t56 -57.5t40 -78.5t15.5 -101q0 -96 -34 -176t-99.5 -136t-163 -87t-224.5 -31q-63 0 -117.5 8.5t-96.5 20.5t-70.5 24.5t-38.5 20.5z" />
<glyph unicode="4" d="M98 324l29 114q51 86 134 196.5t184.5 224.5t214 220.5t221.5 188.5h166l-195 -805h147l-32 -139h-148l-76 -324h-165l77 324h-557zM305 463h385l141 592q-66 -55 -136 -124t-140 -145.5t-134.5 -158.5t-115.5 -164z" />
<glyph unicode="5" d="M115 43l65 143q27 -16 89.5 -39.5t164.5 -23.5q74 0 139.5 19.5t112.5 55t74.5 88t27.5 117.5q0 86 -46 134.5t-113.5 73t-146.5 31.5t-144 11q31 84 57.5 161t51 150.5t47 148.5t43.5 155h591l-32 -144h-441q-12 -37 -27.5 -84t-31.5 -95t-31.5 -92t-23.5 -75 q209 -27 314.5 -112.5t105.5 -245.5q0 -94 -32 -175t-97.5 -141.5t-167 -95.5t-240.5 -35q-59 0 -110.5 9.5t-93.5 20.5t-69.5 22.5t-35.5 17.5z" />
<glyph unicode="6" d="M197 338q0 193 64.5 362.5t183 296.5t285.5 202t372 75h24l-20 -146h-8q-129 0 -234.5 -33.5t-187.5 -90t-140.5 -131t-91.5 -156.5q59 29 127 45t129 16q82 0 141.5 -24.5t98.5 -66.5t56.5 -96t17.5 -116q0 -92 -28 -181t-87 -161t-151.5 -116t-221.5 -44 q-160 0 -244.5 97.5t-84.5 267.5zM365 352q0 -115 40.5 -178t145.5 -63q72 0 127 30.5t92 79.5t56.5 110.5t19.5 125.5q0 88 -43 134t-144 46q-66 0 -129 -11t-129 -44q-18 -59 -27 -120t-9 -110z" />
<glyph unicode="7" d="M285 0q41 145 119.5 307t176 315.5t203 285.5t199.5 216h-602l33 144h794l-34 -148q-78 -68 -180.5 -187.5t-204 -270t-188.5 -321.5t-136 -341h-180z" />
<glyph unicode="8" d="M162 258q0 133 76.5 235.5t214.5 168.5q-111 88 -111 227q0 82 29.5 155.5t87 130t138.5 89t183 32.5q86 0 146.5 -24.5t99.5 -63.5t57.5 -90t18.5 -102q0 -127 -71.5 -221.5t-196.5 -155.5q61 -43 105 -103.5t44 -158.5q0 -80 -30.5 -153.5t-91 -129t-152 -88.5 t-211.5 -33q-92 0 -155.5 26t-103.5 65.5t-58.5 91t-18.5 102.5zM330 287q0 -35 9 -67t30.5 -56.5t58.5 -38.5t92 -14q61 0 114.5 18t93.5 51t62.5 79t22.5 101q0 90 -61 144.5t-172 93.5q-49 -23 -95.5 -55.5t-80 -72.5t-54 -87t-20.5 -96zM508 905q0 -76 46 -125t146 -84 q45 23 87 52.5t75 66.5t51.5 82t18.5 100q0 27 -7 55.5t-26.5 52t-53.5 38t-85 14.5q-53 0 -99.5 -18.5t-80 -52t-53 -79.5t-19.5 -102z" />
<glyph unicode="9" d="M152 -2l30 145q6 -2 17.5 -2h15.5q129 0 230.5 32t178 88t132 132t92.5 162q-59 -29 -126 -43t-130 -14q-82 0 -141.5 23.5t-97.5 64.5t-56 95t-18 116q0 92 28.5 181t87 159.5t148.5 113.5t211 43q170 0 256 -98t86 -266q0 -197 -61.5 -367t-177.5 -296t-281.5 -198.5 t-376.5 -72.5h-19.5t-27.5 2zM446 815q0 -88 44.5 -132t142.5 -44q66 0 130 11.5t130 41.5q35 115 35 240q0 100 -44 161.5t-143 61.5q-72 0 -127 -29.5t-92 -78t-56.5 -108.5t-19.5 -124z" />
<glyph unicode=":" d="M356 113q0 86 48.5 131t113.5 45q57 0 98 -36t41 -108q0 -39 -14 -69.5t-37.5 -53t-53 -35t-60.5 -12.5q-57 0 -96.5 35t-39.5 103zM514 772q0 86 48.5 131t113.5 45q57 0 98 -36t41 -108q0 -39 -14 -69.5t-37.5 -53t-53 -35t-60.5 -12.5q-57 0 -96.5 35t-39.5 103z" />
<glyph unicode=";" d="M215 -162q35 2 75 12.5t75.5 28t64.5 43t41 62.5q-57 8 -86 48t-29 89q0 70 44 117t122 47q68 0 104 -48.5t36 -119.5q0 -59 -25 -125t-77 -125.5t-134 -103.5t-195 -58zM514 772q0 86 48.5 131t113.5 45q57 0 98 -36t41 -108q0 -39 -14 -69.5t-37.5 -53t-53 -35 t-60.5 -12.5q-57 0 -96.5 35t-39.5 103z" />
<glyph unicode="&#x3c;" d="M160 449l35 145l856 336l10 -152l-699 -266l570 -264l-78 -135z" />
<glyph unicode="=" d="M129 270l35 146h821l-35 -146h-821zM223 659l35 146h821l-35 -146h-821z" />
<glyph unicode="&#x3e;" d="M123 264l698 266l-569 265l78 135l694 -336l-35 -145l-856 -336z" />
<glyph unicode="?" d="M334 98q0 74 43 115t100 41q53 0 89 -32t36 -93q0 -72 -46 -113t-101 -41q-53 0 -87 31t-34 92zM463 432l6 39q10 59 46 108.5t83 93.5t99.5 84t95.5 82t71.5 87t28.5 100q0 57 -38 94t-124 37q-59 0 -115.5 -12t-121.5 -43l-19 131q49 27 125 45t156 18q57 0 112.5 -12 t98.5 -41t68.5 -77t25.5 -117q0 -76 -30 -134.5t-76 -106.5t-101 -89t-105.5 -84t-88 -92t-48.5 -111h-149z" />
<glyph unicode="@" d="M141 315q0 111 21.5 227.5t62.5 225.5t100.5 206t135.5 168.5t167 113.5t195 42q164 0 243 -88t79 -227q0 -72 -19 -147l-170 -707q-49 -20 -102 -30.5t-102 -10.5q-61 0 -115.5 17.5t-96.5 54.5t-66.5 95t-24.5 142q0 94 27.5 181.5t83.5 155t144.5 107.5t210.5 40 q14 0 30 -1t32 -3q12 51 12 100q0 78 -40 128t-138 50q-111 0 -205 -79t-162.5 -201.5t-106.5 -271t-38 -288.5q0 -92 18.5 -174t56.5 -142t97 -96t143 -36q35 0 73 5t81 17l-14 -137q-92 -25 -170 -24q-115 0 -199 45t-138 124.5t-80 187.5t-26 230zM606 399q0 -86 38 -132 t110 -46q16 0 31.5 2t35.5 8l121 502q-37 12 -70 12q-66 0 -115.5 -28.5t-83.5 -75.5t-50.5 -109.5t-16.5 -132.5z" />
<glyph unicode="A" d="M-27 0q68 135 150 293t171 323.5t184 332.5t192 319h200q23 -152 38.5 -319t25.5 -332.5t16 -323.5t11 -293h-177l2 332h-487l-156 -332h-170zM371 471h409q-4 184 -18.5 355t-30.5 294q-78 -129 -172 -299t-188 -350z" />
<glyph unicode="B" d="M92 20l293 1229q33 8 74 14.5t84 9.5t83 5t72 2q166 0 269.5 -60.5t103.5 -197.5q0 -121 -58.5 -211t-193.5 -143q72 -20 125 -84t53 -150q0 -213 -156.5 -328.5t-449.5 -115.5q-33 0 -72.5 2t-80.5 5t-79 9t-67 14zM285 139q4 -2 45 -5t106 -3q68 0 137.5 12.5t126 46 t92 90t35.5 146.5q0 94 -73.5 130t-186.5 36h-172zM428 731h133q61 0 122.5 11.5t111 41t79 78.5t29.5 123q0 41 -18.5 69.5t-49 47t-72.5 27t-87 8.5q-53 0 -93 -1t-59 -6z" />
<glyph unicode="C" d="M182 414q0 162 47 320.5t136.5 283.5t216.5 201.5t286 76.5q123 0 198 -32.5t110 -61.5l-80 -135q-35 31 -101.5 55.5t-138.5 24.5q-119 0 -212 -61.5t-157.5 -162t-99.5 -226.5t-35 -257q0 -147 65.5 -232t190.5 -85q98 0 174 25.5t113 48.5l18 -144 q-12 -10 -43.5 -23.5t-75.5 -25.5t-102 -21.5t-121 -9.5q-180 0 -284.5 119t-104.5 322z" />
<glyph unicode="D" d="M74 18l293 1231q135 31 260 31q209 0 326.5 -118t117.5 -333q0 -162 -43 -313t-133 -268t-229.5 -187.5t-331.5 -70.5q-66 0 -133.5 6t-126.5 22zM270 145q16 -4 45 -7t54 -3q115 0 212 49t168.5 138.5t111.5 214.5t40 274q0 156 -71.5 240t-225.5 84q-55 0 -100 -7z" />
<glyph unicode="E" d="M145 0l308 1268h708l-35 -144h-540l-94 -389h475l-35 -143h-475l-107 -449h586l-35 -143h-756z" />
<glyph unicode="F" d="M145 0l308 1268h718l-34 -144h-551l-97 -395h486l-35 -141h-485l-140 -588h-170z" />
<glyph unicode="G" d="M164 414q0 162 47 320.5t136 283.5t216 201.5t287 76.5q63 0 110.5 -9t82 -23.5t59 -30.5t41.5 -31l-80 -135q-35 31 -92.5 56.5t-132.5 25.5q-119 0 -212.5 -61.5t-158 -162t-99 -227.5t-34.5 -258q0 -147 65.5 -233t190.5 -86q51 0 89 7t60 15l115 480h168l-141 -594 q-16 -6 -50 -15.5t-79 -18.5t-99.5 -15.5t-109.5 -6.5q-86 0 -157 31t-120 88.5t-75.5 139t-26.5 182.5z" />
<glyph unicode="H" d="M74 0l303 1268h168l-127 -535h467l129 535h168l-305 -1268h-168l141 590h-467l-143 -590h-166z" />
<glyph unicode="I" d="M145 0l35 143h244l235 981h-243l35 144h657l-35 -144h-244l-237 -981h246l-35 -143h-658z" />
<glyph unicode="J" d="M137 90l88 133q14 -14 37 -32.5t53.5 -34t67.5 -26.5t82 -11q123 0 191.5 72.5t107.5 232.5l168 700h-430l33 144h600l-205 -860q-23 -88 -51.5 -167t-81 -138.5t-133 -94.5t-203.5 -35q-63 0 -115.5 12.5t-94.5 30t-70.5 38t-43.5 36.5z" />
<glyph unicode="K" d="M92 0l303 1268h168l-133 -555q172 154 310.5 290t254.5 265h209q-74 -78 -146.5 -152t-148 -147.5t-155.5 -150.5t-172 -159q43 -49 93 -117.5t99 -153.5t96.5 -183.5t85.5 -204.5h-182q-78 217 -170 365.5t-198 244.5l-146 -610h-168z" />
<glyph unicode="L" d="M111 0l305 1268h168l-271 -1125h549l-33 -143h-718z" />
<glyph unicode="M" d="M37 0q88 328 184 638t213 630h156q14 -166 24.5 -317.5t22.5 -313.5l348 631h158q-12 -129 -35 -278.5t-50.5 -312.5t-61 -334t-68.5 -343h-164q25 111 54.5 242t60 269t61.5 278.5t55 269.5l-323 -578h-148q-4 76 -9 155t-12 154.5t-14.5 144.5t-13.5 124 q-35 -139 -71.5 -281.5t-73.5 -280t-71 -263t-62 -234.5h-160z" />
<glyph unicode="N" d="M82 0l305 1268h166q47 -154 81 -270.5t61.5 -226t51 -226.5t50.5 -271l235 994h154l-305 -1268h-166q-29 170 -55.5 309.5t-56.5 262t-60.5 233t-63.5 225.5l-243 -1030h-154z" />
<glyph unicode="O" d="M164 377q0 76 14.5 173t45 199.5t79.5 201t116.5 175t156.5 123.5t200 47q147 0 239.5 -97t92.5 -306q0 -76 -14.5 -173t-45 -199.5t-78.5 -201t-116 -175t-156 -124t-198 -47.5q-150 0 -243 97.5t-93 306.5zM334 389q0 -145 49 -207.5t137 -62.5q100 0 178 74.5 t131.5 188.5t81 248t27.5 251q0 143 -48 206.5t-134 63.5q-100 0 -179 -75t-132.5 -188.5t-82 -247.5t-28.5 -251z" />
<glyph unicode="P" d="M111 0l297 1249q27 6 67.5 11.5t85.5 10.5t89 7t81 2q168 0 272.5 -79t104.5 -234q0 -111 -41 -202t-117 -155.5t-180 -100.5t-231 -36h-148l-115 -473h-165zM424 616h137q182 0 280.5 88.5t98.5 245.5q0 51 -20.5 87t-54.5 58.5t-75.5 32t-84.5 9.5q-47 0 -90.5 -2 t-65.5 -7z" />
<glyph unicode="Q" d="M164 377q0 76 14.5 173t45 199.5t79.5 201t116.5 175t156.5 123.5t200 47q147 0 239.5 -97t92.5 -306q0 -72 -12.5 -164t-40 -189.5t-70.5 -192.5t-103.5 -172t-140 -130t-178.5 -68v-14q0 -66 78 -107.5t205 -58.5l-74 -135q-74 14 -144.5 33.5t-123.5 54.5t-85 89.5 t-32 140.5v10q-102 29 -162.5 124t-60.5 263zM334 389q0 -145 49 -207.5t137 -62.5q100 0 178 74.5t131.5 188.5t81 248t27.5 251q0 143 -48 206.5t-134 63.5q-100 0 -179 -75t-132.5 -188.5t-82 -247.5t-28.5 -251z" />
<glyph unicode="R" d="M92 0l297 1249q33 8 73 14.5t81 9.5t81 5t72 2q201 0 293 -83t92 -220q0 -174 -92 -286.5t-244 -160.5q27 -55 50.5 -106t44 -111.5t41 -136.5t43.5 -176h-172q-23 109 -44.5 185.5t-42 133t-41 98.5t-40.5 83h-205l-121 -500h-166zM412 639h102q82 0 154.5 13.5t127 49 t86 96t31.5 152.5q0 98 -63.5 142.5t-165.5 44.5q-47 0 -91 -2t-65 -7z" />
<glyph unicode="S" d="M111 63l77 140q35 -23 108.5 -52.5t190.5 -29.5q55 0 109.5 12t97.5 40t68.5 74t25.5 113q0 45 -17 79t-47 61.5t-70 51t-87 48.5q-43 23 -84 49.5t-71.5 62.5t-50 86t-19.5 122q0 166 115.5 271t351.5 105q51 0 100 -8t89 -21t71 -25.5t47 -22.5l-80 -136 q-31 27 -98.5 46.5t-159.5 19.5q-57 0 -105 -12.5t-84 -38t-56.5 -66.5t-20.5 -96q0 -47 14.5 -80t39 -57.5t60.5 -45t79 -42.5q53 -29 100 -56.5t81 -65.5t53 -89t19 -123q0 -100 -35.5 -176t-100 -126t-154.5 -76t-201 -26q-141 0 -231.5 33t-124.5 57z" />
<glyph unicode="T" d="M311 1124l35 144h860l-35 -144h-346l-270 -1124h-170l272 1124h-346z" />
<glyph unicode="U" d="M166 324q0 61 16 131l195 813h168l-195 -811q-16 -70 -16 -129q0 -43 9 -81t29.5 -66.5t54.5 -45t83 -16.5q55 0 100 13t82 48t65.5 96.5t53.5 157.5l201 834h168l-205 -854q-25 -104 -60.5 -186.5t-92 -138.5t-138.5 -86t-199 -30q-84 0 -143 29t-99 77t-58.5 111.5 t-18.5 133.5z" />
<glyph unicode="V" d="M279 1268h176q2 -365 16 -643.5t29 -477.5q143 264 287.5 537.5t285.5 583.5h180q-31 -66 -99.5 -203t-161.5 -312t-202.5 -372t-220.5 -381h-209q-20 184 -35.5 381t-25.5 372t-15 312t-5 203z" />
<glyph unicode="W" d="M121 0q12 131 34.5 281.5t51.5 313.5t61.5 333t65.5 340h166q-25 -106 -54.5 -237.5t-61.5 -273t-63.5 -283.5t-58.5 -269q31 57 71 127.5t83 147.5t86 155t84 151h145q4 -70 10.5 -148.5t13.5 -156.5t13 -149.5t12 -126.5q37 131 76 271t77 279.5t71.5 270.5t62.5 242 h162q-90 -319 -184.5 -627.5t-215.5 -640.5h-155l-47 633l-348 -633h-158z" />
<glyph unicode="X" d="M18 0l557 676l-215 592h185l160 -461q94 115 182 230.5t166 230.5h192q-104 -152 -230 -306.5t-247 -295.5q29 -74 58.5 -159t56 -172t49 -173t39.5 -162h-176q-27 131 -65 263t-85 263l-426 -526h-201z" />
<glyph unicode="Y" d="M301 1268h168q18 -166 63.5 -343t92.5 -325q61 80 124.5 166t124 173t115.5 171t103 158h182q-123 -201 -273.5 -398.5t-316.5 -394.5l-115 -475h-168l113 471q-76 205 -130 400.5t-83 396.5z" />
<glyph unicode="Z" d="M74 0l32 139q96 125 202 255t213.5 257t215 248t205.5 225h-575l34 144h770l-32 -142q-86 -90 -198 -214t-228.5 -258t-225 -267t-188.5 -244h623l-33 -143h-815z" />
<glyph unicode="[" d="M201 -338l426 1770h493l-33 -134h-331l-363 -1503h334l-35 -133h-491z" />
<glyph unicode="\" d="M449 1432h169l142 -1770h-172z" />
<glyph unicode="]" d="M51 -338l31 133h334l362 1503h-334l33 134h492l-426 -1770h-492z" />
<glyph unicode="^" d="M223 657l490 611h145l199 -627l-139 -61l-162 512l-408 -510z" />
<glyph unicode="_" d="M-55 -338l35 143h915l-35 -143h-915z" />
<glyph unicode="`" d="M535 1311l122 104l234 -293l-90 -80z" />
<glyph unicode="a" d="M145 317q0 123 41 240t124 209t208 148.5t291 56.5q25 0 56.5 -2t64.5 -8.5t64.5 -15.5t56.5 -21l-140 -574q-10 -43 -17 -81t-7 -81t8 -85t25 -93l-150 -20q-10 20 -18.5 43.5t-12.5 52.5q-41 -37 -113.5 -73t-170.5 -36q-160 0 -235 96.5t-75 243.5zM315 336 q0 -47 8.5 -87t28 -68.5t53 -46t84.5 -17.5q78 0 138.5 32.5t101.5 77.5q2 31 7 70t14 74l112 448q-10 4 -38.5 7t-45.5 3q-104 0 -189 -40.5t-146.5 -109.5t-94.5 -158t-33 -185z" />
<glyph unicode="b" d="M129 37l324 1354l176 28l-121 -506q43 27 98.5 43.5t116.5 16.5q80 0 138.5 -25.5t96 -69.5t57 -105.5t19.5 -133.5q0 -127 -40 -246t-121.5 -211t-205.5 -147t-290 -55q-55 0 -127 13t-121 44zM317 137q41 -10 91 -10q104 0 189 41t144.5 109.5t92 157.5t32.5 186 q0 41 -8 78.5t-29.5 66.5t-57.5 46t-91 17t-110.5 -18t-102.5 -53z" />
<glyph unicode="c" d="M145 340q0 125 42 239.5t123 202.5t199 140.5t271 52.5q84 0 147.5 -11.5t119.5 -33.5l-64 -144q-35 16 -83 30.5t-134 14.5q-104 0 -188 -39.5t-142.5 -106.5t-89.5 -151.5t-31 -177.5q0 -47 12.5 -89t45.5 -74.5t89 -51t142 -18.5q45 0 88 6t80 16.5t64.5 20.5t42.5 20 l14 -143q-37 -23 -120 -45.5t-200 -22.5q-213 0 -320.5 102.5t-107.5 262.5z" />
<glyph unicode="d" d="M164 317q0 123 41 241t123 209t204.5 147.5t284.5 56.5q47 0 94 -6l103 426l174 28l-258 -1069q-10 -43 -17.5 -81t-7.5 -81t8.5 -85t24.5 -93l-150 -20q-10 18 -18 42.5t-12 53.5q-41 -37 -109.5 -73t-173.5 -36q-160 0 -235.5 94.5t-75.5 245.5zM334 336q0 -47 8 -87 t27.5 -68.5t53.5 -46t85 -17.5q78 0 138.5 32.5t101.5 77.5q2 31 7 70t13 74l113 448q-10 4 -40 7t-46 3q-104 0 -189.5 -40.5t-146 -109.5t-93 -158t-32.5 -185z" />
<glyph unicode="e" d="M145 332q0 129 40 245.5t116 203.5t183.5 139.5t242.5 52.5q80 0 137.5 -19.5t94 -51.5t54 -75t17.5 -90q0 -129 -65.5 -200.5t-170 -107.5t-232.5 -46t-251 -14q-2 -17 -2 -32q0 -103 70 -155q80 -58 211 -59q43 0 89 7t86 16.5t70.5 20.5t43.5 19l14 -143 q-39 -20 -127 -44t-227 -24q-100 0 -174 30t-123 79t-73 113.5t-24 134.5zM332 500q123 2 221 11t166.5 33.5t105.5 68.5t37 112q0 16 -7 34.5t-24.5 35t-48 26.5t-75.5 10q-70 0 -130.5 -27.5t-109.5 -73.5t-83 -105t-52 -125z" />
<glyph unicode="f" d="M18 -311l39 141q43 -27 119 -27q82 0 127 63.5t68 168.5l164 774h-205l35 141h200l19 86q39 184 138 283.5t296 99.5q63 0 120.5 -12t86.5 -29l-68 -135q-16 8 -50 19.5t-106 11.5q-59 0 -101 -17.5t-71.5 -49t-47 -76t-29.5 -97.5l-19 -84h385l-35 -141h-378l-166 -772 q-23 -102 -52.5 -175t-74.5 -119t-109.5 -66.5t-152.5 -20.5q-31 0 -70 8t-62 25z" />
<glyph unicode="g" d="M43 -270l66 141q41 -31 110.5 -51.5t147.5 -20.5q152 0 234.5 66.5t109.5 197.5l8 35q-37 -20 -103.5 -39.5t-132.5 -19.5q-150 0 -228.5 73.5t-78.5 206.5q0 123 40 240t122 209t205 147.5t286 55.5q25 0 60 -2t70.5 -7.5t69.5 -14.5t58 -23l-210 -842q-25 -98 -60 -177 t-95 -134.5t-154.5 -85t-237.5 -29.5q-78 0 -156 20.5t-131 53.5zM344 352q0 -98 43 -136t133 -38q37 0 72 8.5t66.5 20.5t57 25.5t42.5 25.5l133 561q-18 4 -46 7t-50 3q-98 0 -181.5 -40.5t-143.5 -108.5t-93 -154t-33 -174z" />
<glyph unicode="h" d="M92 0l332 1391l176 28l-117 -483q41 16 88 25.5t95 9.5q82 0 141 -22.5t96 -62.5t54.5 -95.5t17.5 -120.5q0 -43 -8.5 -90.5t-20.5 -96.5l-117 -483h-167l106 446q12 51 25.5 105.5t13.5 103.5q0 72 -41 120t-150 48q-92 0 -163 -28l-195 -795h-166z" />
<glyph unicode="i" d="M274 809l33 141h443l-125 -530q-10 -41 -17.5 -78t-7.5 -72q0 -57 29.5 -95t113.5 -38q35 0 68 5t61 14l-10 -144q-14 -4 -52 -11t-108 -7q-76 0 -128 20.5t-83.5 55t-45 82t-13.5 102.5q0 43 7 88t18 92l92 375h-275zM553 1219q0 72 45 112.5t100 40.5q53 0 89 -32.5 t36 -92.5q0 -35 -13 -61.5t-34.5 -47t-47 -30.5t-52.5 -10q-53 0 -88 30.5t-35 90.5z" />
<glyph unicode="j" d="M43 -270l66 141q20 -16 47.5 -28.5t58.5 -21.5t61.5 -14.5t57.5 -5.5q106 0 163.5 47.5t86.5 167.5l192 793h-385l33 141h553l-225 -938q-47 -197 -158 -276.5t-279 -79.5q-154 0 -272 74zM754 1219q0 72 45 112.5t100 40.5q53 0 89 -32.5t36 -92.5q0 -35 -13.5 -61.5 t-34 -47t-46.5 -30.5t-53 -10q-53 0 -88 30.5t-35 90.5z" />
<glyph unicode="k" d="M129 0l334 1391l176 28l-207 -852q123 90 251 189.5t232 193.5h201q-51 -53 -119.5 -112.5t-141.5 -117.5t-142.5 -111.5t-122.5 -92.5q47 -41 97 -100.5t96 -129t86 -143t65 -143.5h-182q-66 147 -154 272t-186 203l-115 -475h-168z" />
<glyph unicode="l" d="M367 1266l34 143h443l-246 -1022q-10 -41 -16.5 -79t-6.5 -70q0 -59 29 -88t107 -29q53 0 104 18.5t80 34.5l12 -143q-29 -16 -93 -35t-150 -19q-135 0 -195.5 58.5t-60.5 175.5q0 84 26 190l207 865h-274z" />
<glyph unicode="m" d="M63 0l222 924q129 47 235 47q57 0 101.5 -17.5t70.5 -52.5q100 70 197 70q47 0 85 -18.5t61.5 -55.5t29.5 -92q2 -14 2 -29q0 -45 -14 -100l-160 -676h-154l162 680q9 35 9 62q0 30 -11 50q-20 38 -68 39q-51 0 -104 -51q0 -23 -2 -49t-10 -55l-74 -309h-154l76 311 q11 43 11 75q0 21 -5 37q-12 40 -71 41q-37 0 -86 -18l-197 -813h-152z" />
<glyph unicode="n" d="M129 0l219 915q84 25 180.5 40.5t173.5 15.5q82 0 141.5 -22.5t96.5 -62.5t54.5 -95.5t17.5 -120.5q0 -43 -8.5 -89t-20.5 -94l-117 -487h-168l109 451q12 51 24.5 103t12.5 101q0 72 -41 120t-150 48q-47 0 -91 -5t-73 -15l-192 -803h-168z" />
<glyph unicode="o" d="M164 309q0 106 29.5 223t96 215.5t171 162t252.5 63.5q152 0 236.5 -88t84.5 -244q0 -106 -29.5 -223t-96 -215.5t-171.5 -162t-252 -63.5q-152 0 -236.5 88.5t-84.5 243.5zM334 324q0 -92 41 -143.5t139 -51.5q82 0 147.5 46t110.5 118t68.5 161t23.5 173q0 92 -41 144 t-139 52q-82 0 -147.5 -46t-110.5 -118.5t-68.5 -161.5t-23.5 -173z" />
<glyph unicode="p" d="M37 -338l299 1249q37 14 83 26.5t93 20t93 11.5t85 4q88 0 153.5 -25.5t107.5 -69.5t62.5 -105.5t20.5 -133.5q0 -127 -38 -246t-117.5 -211t-201.5 -148.5t-288 -56.5q-20 0 -54 5.5t-52 9.5l-78 -330h-168zM319 139q18 -4 48 -7t51 -3q104 0 187 40t141.5 107.5 t89 156.5t30.5 185q0 41 -9 79t-33.5 68t-67.5 47t-109 17q-45 0 -92 -8t-74 -14z" />
<glyph unicode="q" d="M164 317q0 123 41 240t124 209t208 148.5t290 56.5q25 0 59 -3t69.5 -9.5t67.5 -14.5t54 -20l-313 -1262h-168l88 369q-43 -23 -96 -38.5t-113 -15.5q-160 0 -235.5 94.5t-75.5 245.5zM334 336q0 -41 7 -80t26.5 -69.5t56.5 -50t96 -19.5q53 0 107.5 22.5t99.5 57.5 l152 622q-25 4 -47.5 7t-38.5 3q-104 0 -189.5 -40.5t-145 -109.5t-92 -158t-32.5 -185z" />
<glyph unicode="r" d="M182 0l217 901q217 70 437 70q63 0 112 -5t121 -20l-63 -149q-31 8 -56.5 13t-48 8t-46.5 4t-54 1q-63 0 -130 -8t-132 -24l-189 -791h-168z" />
<glyph unicode="s" d="M162 51l67 144q33 -23 103 -49.5t164 -26.5q45 0 89 7t78.5 23.5t56 45t21.5 69.5q0 57 -48 90t-134 74q-41 20 -80 40.5t-68.5 47.5t-48 64.5t-18.5 91.5q0 137 106.5 219t301.5 82q96 0 166.5 -16.5t105.5 -34.5l-63 -144q-31 18 -93.5 34.5t-140.5 16.5q-41 0 -81 -7 t-70.5 -23.5t-49 -43t-18.5 -67.5q0 -49 50 -83t126 -66q47 -18 88 -41t70.5 -52.5t46 -68.5t16.5 -92q0 -78 -30.5 -136.5t-86 -96.5t-132 -57.5t-169.5 -19.5q-117 0 -201.5 27t-123.5 49z" />
<glyph unicode="t" d="M283 809l32 141h203l64 267l176 28l-72 -295h365l-33 -141h-367l-96 -408q-10 -39 -18.5 -75.5t-8.5 -71.5q0 -78 36 -103.5t102 -25.5q63 0 123.5 13.5t113.5 33.5l-4 -145q-59 -20 -123.5 -35t-136.5 -15q-59 0 -109.5 12.5t-88.5 40t-59.5 75t-21.5 118.5 q0 45 7.5 94.5t19.5 100.5l96 391h-200z" />
<glyph unicode="u" d="M172 276q0 47 8 94.5t19 94.5l116 485h170l-108 -448q-10 -43 -23.5 -99.5t-13.5 -113.5q0 -33 6 -62.5t22.5 -53t45 -37t73.5 -13.5q78 0 139.5 33.5t100.5 79.5q2 29 5 60.5t13 68.5l142 585h168l-144 -600q-10 -43 -16 -82t-6 -82t7 -84t26 -92l-150 -20 q-10 20 -19.5 45.5t-13.5 54.5q-41 -37 -110.5 -73.5t-173.5 -36.5q-80 0 -133.5 23.5t-87 63t-48 94t-14.5 115.5z" />
<glyph unicode="v" d="M274 950h172q2 -90 8.5 -191.5t16.5 -202.5t22.5 -195.5t26.5 -170.5q55 70 113.5 164.5t114 196.5t100.5 206.5t74 192.5h172q-41 -121 -102.5 -250t-134.5 -255t-151.5 -240.5t-154.5 -204.5h-156q-45 188 -79.5 437t-41.5 513z" />
<glyph unicode="w" d="M164 0q4 252 24.5 498.5t49.5 451.5h159q-14 -80 -25.5 -157.5t-21.5 -164.5t-20.5 -189.5t-20.5 -231.5q51 86 89 150.5t71 121t63.5 112.5t69.5 128h119q2 -74 6 -129t9 -109.5t12.5 -115t13.5 -146.5q86 199 149.5 382t114.5 349h158q-35 -102 -77 -220t-90 -240.5 t-101.5 -247.5t-108.5 -242h-139q-10 61 -17.5 117.5t-14.5 115t-13.5 122t-12.5 141.5q-49 -84 -87 -147.5t-72.5 -120t-69.5 -111t-78 -117.5h-139z" />
<glyph unicode="x" d="M37 0l477 489l-235 461h188l164 -340q43 47 87 96.5t85 95.5t73.5 84t51.5 64h182q-12 -16 -42 -52t-68.5 -81t-83 -95t-85 -95t-74.5 -83t-52 -59q59 -117 114 -233.5t103 -251.5h-179q-37 100 -72.5 184t-80.5 176l-357 -360h-196z" />
<glyph unicode="y" d="M-37 -303l60 139q16 -16 47.5 -25.5t70.5 -9.5q106 0 178 43t142 144q-68 223 -119 466.5t-61 495.5h172q2 -82 12 -180t27.5 -202.5t40 -211t47.5 -202.5q70 111 126 228.5t99 225t72.5 197.5t42.5 145h178q-20 -70 -57 -173t-89.5 -223t-118 -246t-141.5 -238 q-57 -86 -115.5 -162t-125 -132.5t-147.5 -88t-181 -31.5q-51 0 -94 12.5t-66 28.5z" />
<glyph unicode="z" d="M119 0l26 111q55 80 138.5 177t174.5 194.5t179 183.5t154 143h-453l37 141h667l-30 -121q-53 -47 -143.5 -134t-187.5 -187t-187.5 -197.5t-143.5 -167.5h512l-33 -143h-710z" />
<glyph unicode="{" d="M182 481l33 131h84q41 0 75 15.5t60.5 41t44 57.5t25.5 65l78 329q20 84 50 143.5t79 96.5t118.5 54.5t169.5 17.5h172l-34 -134h-164q-49 0 -88 -6t-66.5 -25.5t-48 -55t-33.5 -93.5l-67 -282q-29 -121 -73 -188.5t-120 -100.5q39 -33 56.5 -75t17.5 -89q0 -33 -6 -63.5 t-13 -61.5l-67 -283q-12 -53 -12 -81q0 -59 37.5 -79t119.5 -20h172l-34 -133h-179q-133 0 -203.5 46t-70.5 157q0 51 14 108l78 330q8 27 8 53q0 51 -29.5 88t-101.5 37h-82z" />
<glyph unicode="|" d="M313 -338l426 1770h160l-426 -1770h-160z" />
<glyph unicode="}" d="M0 -338l33 133h164q51 0 89 6t66.5 25.5t49 55.5t32.5 93l68 283q29 121 71.5 188.5t118.5 100.5q-39 33 -55 75t-16 89q0 33 5 63.5t13 61.5l68 282q4 27 8 46.5t4 35.5q0 59 -38 78.5t-122 19.5h-172l35 134h180q133 0 204 -46.5t71 -156.5q0 -23 -4.5 -50.5 t-10.5 -58.5l-80 -329q-6 -31 -6 -54q0 -51 29 -88t100 -37h82l-33 -131h-82q-41 0 -75.5 -15t-60 -41t-43 -57.5t-25.5 -64.5l-78 -330q-20 -84 -51 -143t-79 -96t-119 -54.5t-169 -17.5h-172z" />
<glyph unicode="~" d="M154 434q14 39 38.5 84t61.5 84t85 63.5t112 24.5q66 0 105.5 -24.5t74.5 -51.5q43 -29 75.5 -53t81.5 -24q31 0 54.5 14t43 35.5t34 46t24.5 47.5l117 -37q-14 -41 -39 -85t-61.5 -83t-85 -63.5t-111.5 -24.5q-66 0 -106 25.5t-74 50.5q-41 31 -75 54.5t-83 23.5 q-31 0 -55.5 -14.5t-43 -36t-32.5 -47t-25 -46.5z" />
<glyph unicode="&#xa0;" />
<glyph unicode="&#xa1;" d="M297 -338l82 344q18 76 35.5 139.5t36 121t37 113.5t40.5 118h117q-8 -61 -15 -117.5t-16.5 -114t-21.5 -121t-31 -139.5l-82 -344h-182zM522 801q0 72 46.5 111.5t101.5 39.5q53 0 87 -29.5t34 -93.5q0 -74 -42 -113.5t-102 -39.5q-53 0 -89 31.5t-36 93.5z" />
<glyph unicode="&#xa2;" d="M195 412q0 98 31.5 195.5t95 178t155.5 139t215 79.5l62 264h147l-59 -254q53 -4 104 -13.5t98 -31.5l-61 -135q-33 16 -75.5 25t-108.5 9q-98 0 -179 -38.5t-138.5 -102t-89.5 -144.5t-32 -165q0 -45 12.5 -84t44.5 -68.5t85 -47t133 -17.5q35 0 72.5 6t71.5 14 t59.5 18.5t35.5 20.5l13 -141q-33 -20 -107.5 -39t-171.5 -23l-59 -256h-148l62 265q-135 33 -201.5 115.5t-66.5 230.5z" />
<glyph unicode="&#xa3;" d="M180 0q51 131 97.5 259t76.5 259l8 27h-169l32 137h170l37 152q33 137 77 226t103.5 140t134 70.5t168.5 19.5t147.5 -17.5t94.5 -39.5l-76 -137q-43 23 -88 35t-100 12q-53 0 -97 -15.5t-80 -50.5t-64.5 -93t-49.5 -146l-37 -156h346l-32 -137h-347l-4 -15 q-23 -92 -54.5 -192t-67.5 -193h530l-35 -145h-721z" />
<glyph unicode="&#xa4;" d="M186 305l133 133q-51 82 -51 197q0 113 51 194l-133 136l107 104l135 -137q88 53 195 53q106 0 190 -53l137 137l107 -104l-135 -136q53 -82 53 -194q0 -59 -13.5 -106.5t-39.5 -88.5l135 -135l-107 -106l-137 135q-84 -51 -190 -51q-111 0 -195 51l-135 -135zM406 635 q0 -53 17 -95t47 -71t69 -45t84 -16q88 0 151.5 61.5t63.5 165.5t-63.5 165.5t-151.5 61.5q-45 0 -84 -16.5t-69 -45t-47 -71.5t-17 -94z" />
<glyph unicode="&#xa5;" d="M152 195l30 129h297l43 186h-295l31 131h248q-66 164 -113 312.5t-92 314.5h178q29 -150 75 -295.5t93 -267.5q106 127 218 274t204 289h193q-117 -164 -238 -315.5t-258 -311.5h252l-33 -131h-293l-45 -186h295l-31 -129h-295l-47 -195h-168l48 195h-297z" />
<glyph unicode="&#xa6;" d="M313 -338l168 700h160l-168 -700h-160zM571 731l168 701h160l-170 -701h-158z" />
<glyph unicode="&#xa7;" d="M92 -135l66 133q35 -20 100.5 -39.5t153.5 -19.5q121 0 182 40.5t61 112.5q0 35 -12 57.5t-33.5 40t-52.5 31t-70 27.5q-51 18 -96 37.5t-78.5 50.5t-53 75t-19.5 111q0 98 64.5 179t158.5 133q-53 53 -53 149q0 74 29.5 132.5t81.5 98t126 61t164 21.5q92 0 158.5 -18 t109.5 -39l-63 -133q-33 16 -84 34.5t-135 18.5q-98 0 -160 -34.5t-62 -116.5q0 -53 36 -83t116 -59q51 -20 96 -39.5t78 -49t52.5 -74t19.5 -111.5q0 -104 -63.5 -181t-159.5 -130q27 -25 49 -64t22 -108q0 -68 -27.5 -124.5t-81 -97.5t-132 -63.5t-181.5 -22.5 q-100 0 -177 17.5t-130 46.5zM399 541q0 -35 16.5 -61.5t46.5 -46t67.5 -36t80.5 -32.5q10 -4 19.5 -7.5t15.5 -7.5q61 29 114.5 87.5t53.5 135.5q0 35 -16.5 62t-45 46t-66.5 35.5t-83 33.5q-27 10 -31 14q-31 -14 -61.5 -36.5t-55 -51.5t-40 -63.5t-15.5 -71.5z" />
<glyph unicode="&#xa8;" d="M492 1221q0 53 36.5 86.5t77.5 33.5t70 -25.5t29 -70.5q0 -53 -38 -86t-79 -33t-68.5 26t-27.5 69zM840 1221q0 53 35.5 86.5t78.5 33.5q41 0 69 -25.5t28 -70.5q0 -53 -37 -86t-80 -33q-41 0 -67.5 26t-26.5 69z" />
<glyph unicode="&#xa9;" d="M145 473q0 125 39 219t101.5 156.5t142.5 93.5t162 31t161.5 -31t142 -93.5t100.5 -155.5t38 -216q0 -125 -39 -218t-101.5 -155.5t-142 -94.5t-161.5 -32q-84 0 -163 32t-141.5 93.5t-100.5 154.5t-38 216zM264 477q0 -98 27.5 -171t74 -121t104.5 -72.5t120 -24.5 q61 0 118.5 24.5t103.5 72.5t73.5 120t27.5 168q0 98 -27.5 171t-73.5 121t-104.5 72.5t-117.5 24.5q-61 0 -119.5 -24.5t-105 -72.5t-74 -121t-27.5 -167zM367 469q0 49 14 96t43 84t74 59.5t106 22.5q31 0 67 -5t72 -21l-43 -111q-23 10 -44 13t-42 3q-63 0 -90.5 -41 t-27.5 -92q0 -66 32.5 -103.5t96.5 -37.5q16 0 40.5 4t45.5 14l34 -108q-35 -16 -72.5 -24.5t-70.5 -8.5q-59 0 -103 21.5t-74 57.5t-44 82t-14 95z" />
<glyph unicode="&#xaa;" d="M367 846q0 84 29.5 165t88 143.5t146.5 101t205 38.5q35 0 82 -8t88 -24l-101 -371q-16 -61 -16 -113q0 -47 8 -78.5t25 -70.5l-127 -23q-6 10 -14.5 28.5t-12.5 37.5q-27 -27 -71 -47.5t-107 -20.5q-119 0 -171 65.5t-52 176.5zM500 858q0 -55 23.5 -99t97.5 -44 q41 0 74.5 20.5t62.5 48.5q0 29 6 61t12 54l72 279q-4 2 -13.5 4t-23.5 2q-70 0 -127 -27t-98 -72t-63.5 -104t-22.5 -123z" />
<glyph unicode="&#xab;" d="M219 520l330 377l94 -72l-252 -315l103 -285l-109 -59zM588 520l327 377l97 -72l-252 -315l102 -285l-108 -59z" />
<glyph unicode="&#xac;" d="M188 567l35 144h838l-148 -623h-147l115 479h-693z" />
<glyph unicode="&#xad;" d="M360 440l39 160h449l-37 -160h-451z" />
<glyph unicode="&#xae;" d="M145 473q0 125 39 219t101.5 156.5t142.5 93.5t162 31t161.5 -31t142 -93.5t100.5 -155.5t38 -216q0 -125 -39 -218t-101.5 -155.5t-142 -94.5t-161.5 -32q-84 0 -163 32t-141.5 93.5t-100.5 154.5t-38 216zM264 477q0 -98 27.5 -171t74 -121t104.5 -72.5t120 -24.5 q61 0 118.5 24.5t103.5 72.5t73.5 120t27.5 168q0 98 -27.5 171t-73.5 121t-104.5 72.5t-117.5 24.5q-61 0 -119.5 -24.5t-105 -72.5t-74 -121t-27.5 -167zM418 225v488q27 8 62.5 13t74.5 5q117 0 172 -45t55 -131q0 -100 -80 -145q23 -35 50.5 -83t54.5 -102h-117 q-27 49 -48 87t-40 71h-76v-158h-108zM526 485h39q55 0 82 14.5t27 61.5q0 41 -33 54.5t-68 13.5q-14 0 -25 -1t-22 -3v-140z" />
<glyph unicode="&#xaf;" d="M481 1169l31 131h512l-31 -131h-512z" />
<glyph unicode="&#xb0;" d="M457 1165q0 59 20.5 106.5t56 80t82 50t97.5 17.5t97 -17.5t82 -50t56.5 -80t20.5 -106.5t-20.5 -106t-56.5 -80t-82 -50.5t-97 -17.5t-97.5 17.5t-82 50.5t-56 80t-20.5 106zM580 1165q0 -66 39.5 -102.5t93.5 -36.5q55 0 94 36.5t39 102.5t-39 103t-94 37 q-53 0 -93 -37t-40 -103z" />
<glyph unicode="&#xb1;" d="M68 0l34 145h822l-35 -145h-821zM219 623l35 143h334l88 369h153l-86 -369h332l-35 -143h-331l-91 -369h-153l88 369h-334z" />
<glyph unicode="&#xb2;" d="M377 575q8 66 29.5 115t54.5 87t75 70t89 60q47 29 82.5 52.5t59.5 46t36 47t12 55.5q0 39 -25.5 57.5t-62.5 18.5q-78 0 -123 -27t-67 -47l-45 90q37 35 100 65.5t149 30.5q104 0 154.5 -48t50.5 -130q0 -53 -25.5 -97t-63.5 -81t-84 -67.5t-87 -55.5q-39 -27 -85 -55.5 t-62 -69.5h346l-27 -117h-481z" />
<glyph unicode="&#xb3;" d="M375 610l49 103q33 -16 77 -27.5t91 -11.5q37 0 73.5 6t64.5 20.5t45.5 40t17.5 64.5q0 51 -48.5 72.5t-126.5 21.5h-38l26 102h45q25 0 56.5 6.5t59.5 18.5t47.5 32.5t19.5 51.5q0 43 -25 59.5t-78 16.5q-49 0 -96 -14.5t-76 -30.5l-24 96q14 10 41.5 20.5t59.5 19.5 t64.5 14t61.5 5q111 0 155 -44t44 -105q0 -72 -38 -116t-104 -77q45 -16 73 -51t28 -94q0 -123 -91.5 -185.5t-238.5 -62.5q-74 0 -126 14.5t-89 34.5z" />
<glyph unicode="&#xb4;" d="M625 1139l288 276l93 -133l-310 -233z" />
<glyph unicode="&#xb5;" d="M8 -338l307 1288h170l-108 -448q-10 -43 -23.5 -99.5t-13.5 -113.5q0 -33 6 -62.5t23.5 -51t47 -34t77.5 -12.5q72 0 126 19.5t105 62.5q0 47 4 93t16 97l136 549h168l-136 -565q-10 -41 -17 -77t-7 -68q0 -47 22.5 -78t81.5 -41l-39 -137q-76 2 -122 26.5t-72 69.5 q-133 -102 -314 -103q-57 0 -106 25t-76 68q-8 -47 -18 -105.5t-25 -114.5l-45 -188h-168z" />
<glyph unicode="&#xb6;" d="M193 776q0 133 57 228.5t151.5 157t212 90t238.5 28.5q72 0 153.5 -6t147.5 -25l-381 -1587h-143l354 1468q-18 4 -50 6.5t-73 2.5h-21.5t-21.5 -2l-354 -1475h-144l197 817q-92 6 -154.5 31t-100.5 64.5t-53 91t-15 110.5z" />
<glyph unicode="&#xb7;" d="M448 514q0 86 48.5 131t113.5 45q57 0 98 -36t41 -108q0 -39 -14 -69.5t-37.5 -53t-53 -35t-60.5 -12.5q-57 0 -96.5 35t-39.5 103z" />
<glyph unicode="&#xb8;" d="M246 -317l41 100q16 -8 39.5 -14.5t58.5 -6.5q31 0 50.5 9.5t19.5 35.5q0 31 -23.5 45.5t-50.5 20.5q10 18 26.5 43t33 48.5t30.5 43t23 29.5h116q-16 -23 -39 -53.5t-39 -53.5q37 -20 55.5 -43.5t18.5 -66.5q0 -80 -57 -123t-156 -43q-53 0 -89 8t-58 21z" />
<glyph unicode="&#xb9;" d="M375 575l26 117h185l102 412q-47 -27 -93 -42t-83 -28l-16 105q162 57 272 143h90l-143 -590h166l-29 -117h-477z" />
<glyph unicode="&#xba;" d="M381 834q0 74 21.5 155.5t69.5 149t125.5 112.5t190.5 45q111 0 173.5 -61t62.5 -172q0 -74 -21.5 -156t-69.5 -149.5t-126 -112.5t-191 -45q-111 0 -173 61.5t-62 172.5zM518 846q0 -59 28.5 -96t94.5 -37q57 0 103.5 31.5t78 82t48 109.5t16.5 115q0 59 -29 96t-94 37 q-59 0 -104.5 -32t-77 -82t-48 -109.5t-16.5 -114.5z" />
<glyph unicode="&#xbb;" d="M195 217l251 315l-102 285l109 60l165 -355l-329 -377zM561 217l252 315l-102 285l108 60l166 -355l-328 -377z" />
<glyph unicode="&#xbc;" d="M57 0l987 1268h160l-991 -1268h-156zM283 1149q78 29 134 57.5t118 75.5h81l-124 -512h-121l86 350q-47 -23 -83 -37t-77 -26zM530 98l21 84q78 94 161 175t185 155h119l-76 -311h74l-25 -103h-74l-22 -98h-121l23 98h-265zM686 201h133l43 178q-31 -25 -54.5 -46.5 t-43 -42t-38.5 -42t-40 -47.5z" />
<glyph unicode="&#xbd;" d="M39 0l987 1268h160l-991 -1268h-156zM283 1149q78 29 134 57.5t118 75.5h81l-124 -512h-121l86 350q-47 -23 -83 -37t-77 -26zM561 0q8 45 18.5 75.5t29 55.5t47 45.5t71.5 44.5l51 29q61 35 89 58.5t28 58.5q0 29 -18.5 40t-47.5 11q-35 0 -71.5 -14.5t-63.5 -36.5 l-47 79q37 35 94.5 56.5t114.5 21.5q61 0 106.5 -30.5t45.5 -108.5q0 -43 -21.5 -78t-53.5 -63.5t-69 -51t-69.5 -39t-56 -29.5t-27.5 -22h260l-23 -102h-387z" />
<glyph unicode="&#xbe;" d="M57 0l987 1268h160l-991 -1268h-156zM164 786l51 95q20 -10 53 -18.5t74 -8.5q53 0 91 17.5t38 60.5q0 33 -37 42t-104 9h-25l25 102h71q47 0 74 18.5t27 47.5q0 43 -72 43q-29 0 -66.5 -10t-66.5 -21l-16 88q31 16 83 30.5t105 14.5q59 0 105.5 -25.5t46.5 -92.5 q0 -35 -24 -72t-71 -62q61 -39 62 -106q0 -33 -16.5 -66.5t-49.5 -60.5t-82 -43t-114 -16q-92 0 -162 34zM530 98l21 84q78 94 161 175t185 155h119l-76 -311h74l-25 -103h-74l-22 -98h-121l23 98h-265zM686 201h133l43 178q-31 -25 -54.5 -46.5t-43 -42t-38.5 -42 t-40 -47.5z" />
<glyph unicode="&#xbf;" d="M158 -100q0 76 29.5 132t75.5 102t101.5 85t104.5 80t87 88t50 111h150l-6 -41q-8 -61 -44 -108.5t-83.5 -89.5t-99.5 -79t-96 -77t-72.5 -84t-28.5 -97q0 -59 37.5 -95t123.5 -36q59 0 115.5 12.5t122.5 44.5l18 -131q-51 -27 -125.5 -46t-154.5 -19q-59 0 -113.5 12 t-97.5 41t-68.5 76t-25.5 119zM616 801q0 72 46.5 111.5t99.5 39.5t87 -29.5t34 -93.5q0 -74 -42 -113.5t-100 -39.5q-53 0 -89 31.5t-36 93.5z" />
<glyph unicode="&#xc0;" d="M-27 0q68 135 150 293t171 323.5t184 332.5t192 319h200q23 -152 38.5 -319t25.5 -332.5t16 -323.5t11 -293h-177l2 332h-487l-156 -332h-170zM371 471h409q-4 184 -18.5 355t-30.5 294q-78 -129 -172 -299t-188 -350zM605 1596l122 104l234 -293l-90 -80z" />
<glyph unicode="&#xc1;" d="M-27 0q68 135 150 293t171 323.5t184 332.5t192 319h200q23 -152 38.5 -319t25.5 -332.5t16 -323.5t11 -293h-177l2 332h-487l-156 -332h-170zM371 471h409q-4 184 -18.5 355t-30.5 294q-78 -129 -172 -299t-188 -350zM695 1424l288 276l93 -133l-310 -233z" />
<glyph unicode="&#xc2;" d="M-27 0q68 135 150 293t171 323.5t184 332.5t192 319h200q23 -152 38.5 -319t25.5 -332.5t16 -323.5t11 -293h-177l2 332h-487l-156 -332h-170zM371 471h409q-4 184 -18.5 355t-30.5 294q-78 -129 -172 -299t-188 -350zM568 1438l297 254l192 -270l-80 -76l-145 160 l-205 -152z" />
<glyph unicode="&#xc3;" d="M-27 0q68 135 150 293t171 323.5t184 332.5t192 319h200q23 -152 38.5 -319t25.5 -332.5t16 -323.5t11 -293h-177l2 332h-487l-156 -332h-170zM371 471h409q-4 184 -18.5 355t-30.5 294q-78 -129 -172 -299t-188 -350zM504 1459q37 76 87 117.5t132 41.5q37 0 64.5 -12.5 t54.5 -28.5q29 -14 49.5 -23t42.5 -9q39 0 64.5 28.5t46.5 59.5l86 -54q-37 -76 -88 -116.5t-131 -40.5q-37 0 -64.5 11t-54.5 28q-29 16 -50.5 24t-43.5 8q-39 0 -63.5 -27.5t-45.5 -60.5z" />
<glyph unicode="&#xc4;" d="M-27 0q68 135 150 293t171 323.5t184 332.5t192 319h200q23 -152 38.5 -319t25.5 -332.5t16 -323.5t11 -293h-177l2 332h-487l-156 -332h-170zM371 471h409q-4 184 -18.5 355t-30.5 294q-78 -129 -172 -299t-188 -350zM562 1506q0 53 36.5 86.5t77.5 33.5t70 -25.5 t29 -70.5q0 -53 -38 -86t-79 -33t-68.5 26t-27.5 69zM910 1506q0 53 35.5 86.5t78.5 33.5q41 0 69 -25.5t28 -70.5q0 -53 -37 -86t-80 -33q-41 0 -67.5 26t-26.5 69z" />
<glyph unicode="&#xc5;" d="M-27 0q61 125 139 275.5t165.5 311.5t178.5 321.5t181 305.5q-23 25 -37 59t-14 75q0 86 56 136t132 50t132.5 -50t56.5 -136q0 -47 -21.5 -91.5t-60.5 -68.5q16 -141 29.5 -300t23.5 -316.5t16 -305t11 -266.5h-177l2 332h-487l-156 -332h-170zM371 471h409 q-4 184 -18.5 355t-30.5 294q-78 -129 -172 -299t-188 -350zM678 1348q0 -47 27.5 -74t68.5 -27t68.5 27t27.5 74t-27.5 73.5t-68.5 26.5t-68.5 -26.5t-27.5 -73.5z" />
<glyph unicode="&#xc6;" d="M16 0q174 356 344 668.5t353 599.5h518l-35 -144h-262l-92 -389h213l-35 -143h-213l-109 -449h289l-35 -143h-450l82 332h-248l-156 -332h-164zM408 471h208l166 688q-102 -180 -199.5 -358t-174.5 -330z" />
<glyph unicode="&#xc7;" d="M182 414q0 162 47 320.5t136.5 283.5t216.5 201.5t286 76.5q123 0 198 -32.5t110 -61.5l-80 -135q-35 31 -101.5 55.5t-138.5 24.5q-119 0 -212 -61.5t-157.5 -162t-99.5 -226.5t-35 -257q0 -147 65.5 -232t190.5 -85q98 0 174 25.5t113 48.5l18 -144 q-12 -10 -39.5 -22.5t-68.5 -24.5t-92 -21.5t-109 -11.5l-31 -43q37 -20 55.5 -43.5t18.5 -66.5q0 -80 -57.5 -123t-155.5 -43q-53 0 -89 8t-58 21l41 100q16 -8 39.5 -14.5t58.5 -6.5q31 0 50.5 9.5t19.5 35.5q0 31 -23.5 45.5t-50.5 20.5q12 23 31.5 51.5t38.5 57.5 q-143 25 -226.5 138t-83.5 294z" />
<glyph unicode="&#xc8;" d="M145 0l308 1268h708l-35 -144h-540l-94 -389h475l-35 -143h-475l-107 -449h586l-35 -143h-756zM664 1596l122 104l234 -293l-90 -80z" />
<glyph unicode="&#xc9;" d="M145 0l308 1268h708l-35 -144h-540l-94 -389h475l-35 -143h-475l-107 -449h586l-35 -143h-756zM697 1424l288 276l93 -133l-310 -233z" />
<glyph unicode="&#xca;" d="M145 0l308 1268h708l-35 -144h-540l-94 -389h475l-35 -143h-475l-107 -449h586l-35 -143h-756zM609 1438l297 254l192 -270l-80 -76l-145 160l-205 -152z" />
<glyph unicode="&#xcb;" d="M145 0l308 1268h708l-35 -144h-540l-94 -389h475l-35 -143h-475l-107 -449h586l-35 -143h-756zM564 1506q0 53 36.5 86.5t77.5 33.5t70 -25.5t29 -70.5q0 -53 -38 -86t-79 -33t-68.5 26t-27.5 69zM912 1506q0 53 35.5 86.5t78.5 33.5q41 0 69 -25.5t28 -70.5 q0 -53 -37 -86t-80 -33q-41 0 -67.5 26t-26.5 69z" />
<glyph unicode="&#xcc;" d="M145 0l35 143h244l235 981h-243l35 144h657l-35 -144h-244l-237 -981h246l-35 -143h-658zM609 1596l122 104l234 -293l-90 -80z" />
<glyph unicode="&#xcd;" d="M145 0l35 143h244l235 981h-243l35 144h657l-35 -144h-244l-237 -981h246l-35 -143h-658zM666 1424l288 276l93 -133l-310 -233z" />
<glyph unicode="&#xce;" d="M145 0l35 143h244l235 981h-243l35 144h657l-35 -144h-244l-237 -981h246l-35 -143h-658zM572 1438l297 254l192 -270l-80 -76l-145 160l-205 -152z" />
<glyph unicode="&#xcf;" d="M145 0l35 143h244l235 981h-243l35 144h657l-35 -144h-244l-237 -981h246l-35 -143h-658zM566 1506q0 53 36.5 86.5t77.5 33.5t70 -25.5t29 -70.5q0 -53 -38 -86t-79 -33t-68.5 26t-27.5 69zM914 1506q0 53 35.5 86.5t78.5 33.5q41 0 69 -25.5t28 -70.5q0 -53 -37 -86 t-80 -33q-41 0 -67.5 26t-26.5 69z" />
<glyph unicode="&#xd0;" d="M133 592l35 137h145l123 520q125 31 240 31q184 0 288.5 -118t104.5 -333q0 -162 -40 -313t-124 -268t-214 -187.5t-308 -70.5q-59 0 -122.5 6t-117.5 22l136 574h-146zM342 145q12 -4 34.5 -7t41.5 -3q102 0 190 49t152.5 138.5t101.5 214.5t37 274q0 156 -59.5 240 t-186.5 84q-45 0 -78 -7l-94 -399h164l-35 -137h-161z" />
<glyph unicode="&#xd1;" d="M82 0l305 1268h166q47 -154 81 -270.5t61.5 -226t51 -226.5t50.5 -271l235 994h154l-305 -1268h-166q-29 170 -55.5 309.5t-56.5 262t-60.5 233t-63.5 225.5l-243 -1030h-154zM512 1459q37 76 87 117.5t132 41.5q37 0 64.5 -12.5t54.5 -28.5q29 -14 49.5 -23t42.5 -9 q39 0 64.5 28.5t46.5 59.5l86 -54q-37 -76 -88 -116.5t-131 -40.5q-37 0 -64.5 11t-54.5 28q-29 16 -50.5 24t-43.5 8q-39 0 -63.5 -27.5t-45.5 -60.5z" />
<glyph unicode="&#xd2;" d="M164 377q0 76 14.5 173t45 199.5t79.5 201t116.5 175t156.5 123.5t200 47q147 0 239.5 -97t92.5 -306q0 -76 -14.5 -173t-45 -199.5t-78.5 -201t-116 -175t-156 -124t-198 -47.5q-150 0 -243 97.5t-93 306.5zM334 389q0 -145 49 -207.5t137 -62.5q100 0 178 74.5 t131.5 188.5t81 248t27.5 251q0 143 -48 206.5t-134 63.5q-100 0 -179 -75t-132.5 -188.5t-82 -247.5t-28.5 -251zM619 1596l122 104l234 -293l-90 -80z" />
<glyph unicode="&#xd3;" d="M164 377q0 76 14.5 173t45 199.5t79.5 201t116.5 175t156.5 123.5t200 47q147 0 239.5 -97t92.5 -306q0 -76 -14.5 -173t-45 -199.5t-78.5 -201t-116 -175t-156 -124t-198 -47.5q-150 0 -243 97.5t-93 306.5zM334 389q0 -145 49 -207.5t137 -62.5q100 0 178 74.5 t131.5 188.5t81 248t27.5 251q0 143 -48 206.5t-134 63.5q-100 0 -179 -75t-132.5 -188.5t-82 -247.5t-28.5 -251zM691 1424l288 276l93 -133l-310 -233z" />
<glyph unicode="&#xd4;" d="M164 377q0 76 14.5 173t45 199.5t79.5 201t116.5 175t156.5 123.5t200 47q147 0 239.5 -97t92.5 -306q0 -76 -14.5 -173t-45 -199.5t-78.5 -201t-116 -175t-156 -124t-198 -47.5q-150 0 -243 97.5t-93 306.5zM334 389q0 -145 49 -207.5t137 -62.5q100 0 178 74.5 t131.5 188.5t81 248t27.5 251q0 143 -48 206.5t-134 63.5q-100 0 -179 -75t-132.5 -188.5t-82 -247.5t-28.5 -251zM580 1438l297 254l192 -270l-80 -76l-145 160l-205 -152z" />
<glyph unicode="&#xd5;" d="M164 377q0 76 14.5 173t45 199.5t79.5 201t116.5 175t156.5 123.5t200 47q147 0 239.5 -97t92.5 -306q0 -76 -14.5 -173t-45 -199.5t-78.5 -201t-116 -175t-156 -124t-198 -47.5q-150 0 -243 97.5t-93 306.5zM334 389q0 -145 49 -207.5t137 -62.5q100 0 178 74.5 t131.5 188.5t81 248t27.5 251q0 143 -48 206.5t-134 63.5q-100 0 -179 -75t-132.5 -188.5t-82 -247.5t-28.5 -251zM518 1459q37 76 87 117.5t132 41.5q37 0 64.5 -12.5t54.5 -28.5q29 -14 49.5 -23t42.5 -9q39 0 64.5 28.5t46.5 59.5l86 -54q-37 -76 -88 -116.5t-131 -40.5 q-37 0 -64.5 11t-54.5 28q-29 16 -50.5 24t-43.5 8q-39 0 -63.5 -27.5t-45.5 -60.5z" />
<glyph unicode="&#xd6;" d="M164 377q0 76 14.5 173t45 199.5t79.5 201t116.5 175t156.5 123.5t200 47q147 0 239.5 -97t92.5 -306q0 -76 -14.5 -173t-45 -199.5t-78.5 -201t-116 -175t-156 -124t-198 -47.5q-150 0 -243 97.5t-93 306.5zM334 389q0 -145 49 -207.5t137 -62.5q100 0 178 74.5 t131.5 188.5t81 248t27.5 251q0 143 -48 206.5t-134 63.5q-100 0 -179 -75t-132.5 -188.5t-82 -247.5t-28.5 -251zM576 1506q0 53 36.5 86.5t77.5 33.5t70 -25.5t29 -70.5q0 -53 -38 -86t-79 -33t-68.5 26t-27.5 69zM924 1506q0 53 35.5 86.5t78.5 33.5q41 0 69 -25.5 t28 -70.5q0 -53 -37 -86t-80 -33q-41 0 -67.5 26t-26.5 69z" />
<glyph unicode="&#xd7;" d="M180 279l332 268l-199 264l115 92l199 -262l329 268l86 -110l-333 -269l200 -264l-114 -92l-201 262l-330 -268z" />
<glyph unicode="&#xd8;" d="M84 6l104 144q-20 45 -31.5 101t-11.5 126q0 76 14.5 173t45.5 199.5t80 201t116.5 175t156.5 123.5t200 47q127 0 209 -69l77 106l105 -76l-100 -137q41 -92 41 -227q0 -76 -14.5 -173t-45.5 -199.5t-79 -201t-115.5 -175t-155.5 -124t-199 -47.5q-131 0 -215 70 l-80 -111zM311 355.5q0 -17.5 2 -33.5l559 774q-49 55 -135 55q-100 0 -179 -75t-134 -188.5t-84 -247.5t-29 -251v-33.5zM362 176q49 -57 140 -57q100 0 179 74.5t134 188.5t84 248t29 251q0 16 -1 33.5t-3 33.5z" />
<glyph unicode="&#xd9;" d="M166 324q0 61 16 131l195 813h168l-195 -811q-16 -70 -16 -129q0 -43 9 -81t29.5 -66.5t54.5 -45t83 -16.5q55 0 100 13t82 48t65.5 96.5t53.5 157.5l201 834h168l-205 -854q-25 -104 -60.5 -186.5t-92 -138.5t-138.5 -86t-199 -30q-84 0 -143 29t-99 77t-58.5 111.5 t-18.5 133.5zM555 1596l122 104l234 -293l-90 -80z" />
<glyph unicode="&#xda;" d="M166 324q0 61 16 131l195 813h168l-195 -811q-16 -70 -16 -129q0 -43 9 -81t29.5 -66.5t54.5 -45t83 -16.5q55 0 100 13t82 48t65.5 96.5t53.5 157.5l201 834h168l-205 -854q-25 -104 -60.5 -186.5t-92 -138.5t-138.5 -86t-199 -30q-84 0 -143 29t-99 77t-58.5 111.5 t-18.5 133.5zM699 1424l288 276l93 -133l-310 -233z" />
<glyph unicode="&#xdb;" d="M166 324q0 61 16 131l195 813h168l-195 -811q-16 -70 -16 -129q0 -43 9 -81t29.5 -66.5t54.5 -45t83 -16.5q55 0 100 13t82 48t65.5 96.5t53.5 157.5l201 834h168l-205 -854q-25 -104 -60.5 -186.5t-92 -138.5t-138.5 -86t-199 -30q-84 0 -143 29t-99 77t-58.5 111.5 t-18.5 133.5zM572 1438l297 254l192 -270l-80 -76l-145 160l-205 -152z" />
<glyph unicode="&#xdc;" d="M166 324q0 61 16 131l195 813h168l-195 -811q-16 -70 -16 -129q0 -43 9 -81t29.5 -66.5t54.5 -45t83 -16.5q55 0 100 13t82 48t65.5 96.5t53.5 157.5l201 834h168l-205 -854q-25 -104 -60.5 -186.5t-92 -138.5t-138.5 -86t-199 -30q-84 0 -143 29t-99 77t-58.5 111.5 t-18.5 133.5zM566 1506q0 53 36.5 86.5t77.5 33.5t70 -25.5t29 -70.5q0 -53 -38 -86t-79 -33t-68.5 26t-27.5 69zM914 1506q0 53 35.5 86.5t78.5 33.5q41 0 69 -25.5t28 -70.5q0 -53 -37 -86t-80 -33q-41 0 -67.5 26t-26.5 69z" />
<glyph unicode="&#xdd;" d="M301 1268h168q18 -166 63.5 -343t92.5 -325q61 80 124.5 166t124 173t115.5 171t103 158h182q-123 -201 -273.5 -398.5t-316.5 -394.5l-115 -475h-168l113 471q-76 205 -130 400.5t-83 396.5zM717 1424l288 276l93 -133l-310 -233z" />
<glyph unicode="&#xde;" d="M109 0l305 1268h168l-50 -209q63 6 125 6q203 0 303.5 -89t100.5 -233q0 -141 -56.5 -234t-147.5 -148.5t-206.5 -78t-234.5 -22.5h-76l-64 -260h-167zM375 408h80q84 0 160.5 16t136 54t94.5 98.5t35 150.5q0 76 -42 115t-101.5 55t-127 15t-116.5 -5z" />
<glyph unicode="&#xdf;" d="M-190 -311l38 141q43 -27 119 -27q84 0 128 63.5t67 168.5l196 913q27 113 60 200t81 147.5t114.5 92t160.5 31.5q145 0 213 -69.5t68 -178.5q0 -53 -11.5 -92t-35 -73.5t-59.5 -68.5t-85 -77q-31 -29 -53.5 -48t-37.5 -38.5t-22.5 -40t-7.5 -47.5q0 -29 20.5 -51.5 t51.5 -45t65.5 -46t65.5 -56t51.5 -76.5t20.5 -104q0 -86 -33 -148.5t-87 -103.5t-123.5 -60.5t-143.5 -19.5q-63 0 -113.5 11.5t-103.5 38.5l63 147q41 -27 79 -38t91 -11q39 0 76 9t65.5 30.5t45 54.5t16.5 80t-20.5 78t-51 54.5t-66.5 44t-67 47t-51.5 63.5t-20.5 92 q0 82 49.5 139t109 107.5t108.5 102.5t49 128q0 121 -125 121q-96 0 -150.5 -91t-87.5 -239l-194 -907q-23 -102 -52.5 -175t-75.5 -119t-109.5 -66.5t-153.5 -20.5q-31 0 -70 8t-61 25z" />
<glyph unicode="&#xe0;" d="M145 317q0 123 41 240t124 209t208 148.5t291 56.5q25 0 56.5 -2t64.5 -8.5t64.5 -15.5t56.5 -21l-140 -574q-10 -43 -17 -81t-7 -81t8 -85t25 -93l-150 -20q-10 20 -18.5 43.5t-12.5 52.5q-41 -37 -113.5 -73t-170.5 -36q-160 0 -235 96.5t-75 243.5zM315 336 q0 -47 8.5 -87t28 -68.5t53 -46t84.5 -17.5q78 0 138.5 32.5t101.5 77.5q2 31 7 70t14 74l112 448q-10 4 -38.5 7t-45.5 3q-104 0 -189 -40.5t-146.5 -109.5t-94.5 -158t-33 -185zM576 1311l122 104l234 -293l-90 -80z" />
<glyph unicode="&#xe1;" d="M145 317q0 123 41 240t124 209t208 148.5t291 56.5q25 0 56.5 -2t64.5 -8.5t64.5 -15.5t56.5 -21l-140 -574q-10 -43 -17 -81t-7 -81t8 -85t25 -93l-150 -20q-10 20 -18.5 43.5t-12.5 52.5q-41 -37 -113.5 -73t-170.5 -36q-160 0 -235 96.5t-75 243.5zM315 336 q0 -47 8.5 -87t28 -68.5t53 -46t84.5 -17.5q78 0 138.5 32.5t101.5 77.5q2 31 7 70t14 74l112 448q-10 4 -38.5 7t-45.5 3q-104 0 -189 -40.5t-146.5 -109.5t-94.5 -158t-33 -185zM666 1139l288 276l93 -133l-310 -233z" />
<glyph unicode="&#xe2;" d="M145 317q0 123 41 240t124 209t208 148.5t291 56.5q25 0 56.5 -2t64.5 -8.5t64.5 -15.5t56.5 -21l-140 -574q-10 -43 -17 -81t-7 -81t8 -85t25 -93l-150 -20q-10 20 -18.5 43.5t-12.5 52.5q-41 -37 -113.5 -73t-170.5 -36q-160 0 -235 96.5t-75 243.5zM315 336 q0 -47 8.5 -87t28 -68.5t53 -46t84.5 -17.5q78 0 138.5 32.5t101.5 77.5q2 31 7 70t14 74l112 448q-10 4 -38.5 7t-45.5 3q-104 0 -189 -40.5t-146.5 -109.5t-94.5 -158t-33 -185zM539 1153l297 254l192 -270l-80 -76l-145 160l-205 -152z" />
<glyph unicode="&#xe3;" d="M145 317q0 123 41 240t124 209t208 148.5t291 56.5q25 0 56.5 -2t64.5 -8.5t64.5 -15.5t56.5 -21l-140 -574q-10 -43 -17 -81t-7 -81t8 -85t25 -93l-150 -20q-10 20 -18.5 43.5t-12.5 52.5q-41 -37 -113.5 -73t-170.5 -36q-160 0 -235 96.5t-75 243.5zM315 336 q0 -47 8.5 -87t28 -68.5t53 -46t84.5 -17.5q78 0 138.5 32.5t101.5 77.5q2 31 7 70t14 74l112 448q-10 4 -38.5 7t-45.5 3q-104 0 -189 -40.5t-146.5 -109.5t-94.5 -158t-33 -185zM493 1174q37 76 87 117.5t132 41.5q37 0 64.5 -12.5t54.5 -28.5q29 -14 49.5 -23t42.5 -9 q39 0 64.5 28.5t46.5 59.5l86 -54q-37 -76 -88 -116.5t-131 -40.5q-37 0 -64.5 11t-54.5 28q-29 16 -50.5 24t-43.5 8q-39 0 -63.5 -27.5t-45.5 -60.5z" />
<glyph unicode="&#xe4;" d="M145 317q0 123 41 240t124 209t208 148.5t291 56.5q25 0 56.5 -2t64.5 -8.5t64.5 -15.5t56.5 -21l-140 -574q-10 -43 -17 -81t-7 -81t8 -85t25 -93l-150 -20q-10 20 -18.5 43.5t-12.5 52.5q-41 -37 -113.5 -73t-170.5 -36q-160 0 -235 96.5t-75 243.5zM315 336 q0 -47 8.5 -87t28 -68.5t53 -46t84.5 -17.5q78 0 138.5 32.5t101.5 77.5q2 31 7 70t14 74l112 448q-10 4 -38.5 7t-45.5 3q-104 0 -189 -40.5t-146.5 -109.5t-94.5 -158t-33 -185zM551 1221q0 53 36.5 86.5t77.5 33.5t70 -25.5t29 -70.5q0 -53 -38 -86t-79 -33t-68.5 26 t-27.5 69zM899 1221q0 53 35.5 86.5t78.5 33.5q41 0 69 -25.5t28 -70.5q0 -53 -37 -86t-80 -33q-41 0 -67.5 26t-26.5 69z" />
<glyph unicode="&#xe5;" d="M145 317q0 123 41 240t124 209t208 148.5t291 56.5q25 0 56.5 -2t64.5 -8.5t64.5 -15.5t56.5 -21l-140 -574q-10 -43 -17 -81t-7 -81t8 -85t25 -93l-150 -20q-10 20 -18.5 43.5t-12.5 52.5q-41 -37 -113.5 -73t-170.5 -36q-160 0 -235 96.5t-75 243.5zM315 336 q0 -47 8.5 -87t28 -68.5t53 -46t84.5 -17.5q78 0 138.5 32.5t101.5 77.5q2 31 7 70t14 74l112 448q-10 4 -38.5 7t-45.5 3q-104 0 -189 -40.5t-146.5 -109.5t-94.5 -158t-33 -185zM622 1239q0 86 56.5 136t132.5 50t132 -50t56 -136q0 -88 -56.5 -138t-131.5 -50 q-76 0 -132.5 50t-56.5 138zM714 1239q0 -49 28 -75.5t69 -26.5t68.5 26.5t27.5 75.5q0 47 -27.5 73.5t-68.5 26.5t-69 -26.5t-28 -73.5z" />
<glyph unicode="&#xe6;" d="M94 190q0 63 26.5 130t81 124.5t138.5 95.5t199 42q2 14 2 26.5v28.5q0 96 -37 142t-101 46q-63 0 -147 -47l10 142q45 29 90 41t88 12q37 0 74 -10.5t70 -32t56.5 -56t31.5 -86.5q43 88 117.5 136.5t146.5 48.5t124 -51.5t52 -161.5q0 -63 -25.5 -130t-81 -123 t-139.5 -94t-200 -44v-54q0 -98 36.5 -143t100.5 -45q63 0 147 47l-10 -143q-45 -29 -90 -41.5t-88 -12.5q-37 0 -72 10.5t-65.5 32t-53 56.5t-30.5 86q-23 -43 -54.5 -78t-68.5 -58.5t-76 -36t-76 -12.5q-72 0 -124 51.5t-52 161.5zM256 227q0 -53 17 -79.5t46 -26.5 q25 0 54.5 20.5t58.5 60.5t53.5 99t38.5 139q-76 -4 -127 -24.5t-82.5 -51t-45 -67.5t-13.5 -70zM686 510q76 2 127 23.5t83 53t45 67.5t13 71q0 53 -17 78.5t-46 25.5q-25 0 -54.5 -20.5t-58 -60t-53.5 -99t-39 -139.5z" />
<glyph unicode="&#xe7;" d="M145 340q0 125 42 239.5t123 202.5t199 140.5t271 52.5q84 0 147.5 -11.5t119.5 -33.5l-64 -144q-35 16 -83 30.5t-134 14.5q-104 0 -188 -39.5t-142.5 -106.5t-89.5 -151.5t-31 -177.5q0 -47 12.5 -89t45.5 -74.5t89 -51t142 -18.5q45 0 88 6t80 16.5t64.5 20.5t42.5 20 l14 -143q-37 -23 -120 -45.5t-200 -22.5h-8l-33 -45q37 -20 55.5 -43.5t18.5 -66.5q0 -80 -57 -123t-156 -43q-53 0 -89 8t-58 21l41 100q16 -8 39.5 -14.5t58.5 -6.5q31 0 50.5 9.5t19.5 35.5q0 31 -23.5 45.5t-50.5 20.5q12 23 33.5 53.5t40.5 59.5q-156 29 -233 123 t-77 231z" />
<glyph unicode="&#xe8;" d="M145 332q0 129 40 245.5t116 203.5t183.5 139.5t242.5 52.5q80 0 137.5 -19.5t94 -51.5t54 -75t17.5 -90q0 -129 -65.5 -200.5t-170 -107.5t-232.5 -46t-251 -14q-12 -129 68 -187.5t211 -58.5q43 0 89 7t86 16.5t70.5 20.5t43.5 19l14 -143q-39 -20 -127 -44t-227 -24 q-100 0 -174 30t-123 79t-73 113.5t-24 134.5zM332 500q123 2 221 11t166.5 33.5t105.5 68.5t37 112q0 16 -7 34.5t-24.5 35t-48 26.5t-75.5 10q-70 0 -130.5 -27.5t-109.5 -73.5t-83 -105t-52 -125zM578 1311l122 104l234 -293l-90 -80z" />
<glyph unicode="&#xe9;" d="M145 332q0 129 40 245.5t116 203.5t183.5 139.5t242.5 52.5q80 0 137.5 -19.5t94 -51.5t54 -75t17.5 -90q0 -129 -65.5 -200.5t-170 -107.5t-232.5 -46t-251 -14q-12 -129 68 -187.5t211 -58.5q43 0 89 7t86 16.5t70.5 20.5t43.5 19l14 -143q-39 -20 -127 -44t-227 -24 q-100 0 -174 30t-123 79t-73 113.5t-24 134.5zM332 500q123 2 221 11t166.5 33.5t105.5 68.5t37 112q0 16 -7 34.5t-24.5 35t-48 26.5t-75.5 10q-70 0 -130.5 -27.5t-109.5 -73.5t-83 -105t-52 -125zM625 1139l288 276l93 -133l-310 -233z" />
<glyph unicode="&#xea;" d="M145 332q0 129 40 245.5t116 203.5t183.5 139.5t242.5 52.5q80 0 137.5 -19.5t94 -51.5t54 -75t17.5 -90q0 -129 -65.5 -200.5t-170 -107.5t-232.5 -46t-251 -14q-12 -129 68 -187.5t211 -58.5q43 0 89 7t86 16.5t70.5 20.5t43.5 19l14 -143q-39 -20 -127 -44t-227 -24 q-100 0 -174 30t-123 79t-73 113.5t-24 134.5zM332 500q123 2 221 11t166.5 33.5t105.5 68.5t37 112q0 16 -7 34.5t-24.5 35t-48 26.5t-75.5 10q-70 0 -130.5 -27.5t-109.5 -73.5t-83 -105t-52 -125zM518 1153l297 254l192 -270l-80 -76l-145 160l-205 -152z" />
<glyph unicode="&#xeb;" d="M145 332q0 129 40 245.5t116 203.5t183.5 139.5t242.5 52.5q80 0 137.5 -19.5t94 -51.5t54 -75t17.5 -90q0 -129 -65.5 -200.5t-170 -107.5t-232.5 -46t-251 -14q-12 -129 68 -187.5t211 -58.5q43 0 89 7t86 16.5t70.5 20.5t43.5 19l14 -143q-39 -20 -127 -44t-227 -24 q-100 0 -174 30t-123 79t-73 113.5t-24 134.5zM332 500q123 2 221 11t166.5 33.5t105.5 68.5t37 112q0 16 -7 34.5t-24.5 35t-48 26.5t-75.5 10q-70 0 -130.5 -27.5t-109.5 -73.5t-83 -105t-52 -125zM535 1221q0 53 36.5 86.5t77.5 33.5t70 -25.5t29 -70.5q0 -53 -38 -86 t-79 -33t-68.5 26t-27.5 69zM883 1221q0 53 35.5 86.5t78.5 33.5q41 0 69 -25.5t28 -70.5q0 -53 -37 -86t-80 -33q-41 0 -67.5 26t-26.5 69z" />
<glyph unicode="&#xec;" d="M274 809l33 141h443l-125 -530q-10 -41 -17.5 -78t-7.5 -72q0 -57 29.5 -95t113.5 -38q35 0 68 5t61 14l-10 -144q-14 -4 -52 -11t-108 -7q-76 0 -128 20.5t-83.5 55t-45 82t-13.5 102.5q0 43 7 88t18 92l92 375h-275zM465 1311l122 104l234 -293l-90 -80z" />
<glyph unicode="&#xed;" d="M274 809l33 141h443l-125 -530q-10 -41 -17.5 -78t-7.5 -72q0 -57 29.5 -95t113.5 -38q35 0 68 5t61 14l-10 -144q-14 -4 -52 -11t-108 -7q-76 0 -128 20.5t-83.5 55t-45 82t-13.5 102.5q0 43 7 88t18 92l92 375h-275zM555 1139l288 276l93 -133l-310 -233z" />
<glyph unicode="&#xee;" d="M274 809l33 141h443l-125 -530q-10 -41 -17.5 -78t-7.5 -72q0 -57 29.5 -95t113.5 -38q35 0 68 5t61 14l-10 -144q-14 -4 -52 -11t-108 -7q-76 0 -128 20.5t-83.5 55t-45 82t-13.5 102.5q0 43 7 88t18 92l92 375h-275zM428 1153l297 254l192 -270l-80 -76l-145 160 l-205 -152z" />
<glyph unicode="&#xef;" d="M274 809l33 141h443l-125 -530q-10 -41 -17.5 -78t-7.5 -72q0 -57 29.5 -95t113.5 -38q35 0 68 5t61 14l-10 -144q-14 -4 -52 -11t-108 -7q-76 0 -128 20.5t-83.5 55t-45 82t-13.5 102.5q0 43 7 88t18 92l92 375h-275zM422 1221q0 53 36.5 86.5t77.5 33.5t70 -25.5 t29 -70.5q0 -53 -38 -86t-79 -33t-68.5 26t-27.5 69zM770 1221q0 53 35.5 86.5t78.5 33.5q41 0 69 -25.5t28 -70.5q0 -53 -37 -86t-80 -33q-41 0 -67.5 26t-26.5 69z" />
<glyph unicode="&#xf0;" d="M164 322q0 121 32.5 226t96 183t158 122t217.5 44q59 0 106 -17.5t78 -37.5q-4 59 -16.5 119.5t-38.5 121.5l-238 -75l-14 114l200 66q-29 47 -60.5 78.5t-68.5 66.5l127 86q35 -27 77 -71.5t83 -110.5l240 76l14 -115l-201 -63q29 -72 47.5 -160.5t18.5 -194.5 q0 -55 -7 -136t-28.5 -170t-59.5 -178t-98.5 -161t-146.5 -116t-205 -44q-68 0 -125 27t-99 74t-65.5 110.5t-23.5 135.5zM334 324q0 -90 44 -147.5t124 -57.5t141.5 49t104.5 128t67.5 178t32.5 202q-43 41 -93 59.5t-100 18.5q-156 0 -238.5 -116t-82.5 -314z" />
<glyph unicode="&#xf1;" d="M129 0l219 915q84 25 180.5 40.5t173.5 15.5q82 0 141.5 -22.5t96.5 -62.5t54.5 -95.5t17.5 -120.5q0 -43 -8.5 -89t-20.5 -94l-117 -487h-168l109 451q12 51 24.5 103t12.5 101q0 72 -41 120t-150 48q-47 0 -91 -5t-73 -15l-192 -803h-168zM434 1174q37 76 87 117.5 t132 41.5q37 0 64.5 -12.5t54.5 -28.5q29 -14 49.5 -23t42.5 -9q39 0 64.5 28.5t46.5 59.5l86 -54q-37 -76 -88 -116.5t-131 -40.5q-37 0 -64.5 11t-54.5 28q-29 16 -50.5 24t-43.5 8q-39 0 -63.5 -27.5t-45.5 -60.5z" />
<glyph unicode="&#xf2;" d="M164 309q0 106 29.5 223t96 215.5t171 162t252.5 63.5q152 0 236.5 -88t84.5 -244q0 -106 -29.5 -223t-96 -215.5t-171.5 -162t-252 -63.5q-152 0 -236.5 88.5t-84.5 243.5zM334 324q0 -92 41 -143.5t139 -51.5q82 0 147.5 46t110.5 118t68.5 161t23.5 173q0 92 -41 144 t-139 52q-82 0 -147.5 -46t-110.5 -118.5t-68.5 -161.5t-23.5 -173zM555 1311l122 104l234 -293l-90 -80z" />
<glyph unicode="&#xf3;" d="M164 309q0 106 29.5 223t96 215.5t171 162t252.5 63.5q152 0 236.5 -88t84.5 -244q0 -106 -29.5 -223t-96 -215.5t-171.5 -162t-252 -63.5q-152 0 -236.5 88.5t-84.5 243.5zM334 324q0 -92 41 -143.5t139 -51.5q82 0 147.5 46t110.5 118t68.5 161t23.5 173q0 92 -41 144 t-139 52q-82 0 -147.5 -46t-110.5 -118.5t-68.5 -161.5t-23.5 -173zM625 1139l288 276l93 -133l-310 -233z" />
<glyph unicode="&#xf4;" d="M164 309q0 106 29.5 223t96 215.5t171 162t252.5 63.5q152 0 236.5 -88t84.5 -244q0 -106 -29.5 -223t-96 -215.5t-171.5 -162t-252 -63.5q-152 0 -236.5 88.5t-84.5 243.5zM334 324q0 -92 41 -143.5t139 -51.5q82 0 147.5 46t110.5 118t68.5 161t23.5 173q0 92 -41 144 t-139 52q-82 0 -147.5 -46t-110.5 -118.5t-68.5 -161.5t-23.5 -173zM516 1153l297 254l192 -270l-80 -76l-145 160l-205 -152z" />
<glyph unicode="&#xf5;" d="M164 309q0 106 29.5 223t96 215.5t171 162t252.5 63.5q152 0 236.5 -88t84.5 -244q0 -106 -29.5 -223t-96 -215.5t-171.5 -162t-252 -63.5q-152 0 -236.5 88.5t-84.5 243.5zM334 324q0 -92 41 -143.5t139 -51.5q82 0 147.5 46t110.5 118t68.5 161t23.5 173q0 92 -41 144 t-139 52q-82 0 -147.5 -46t-110.5 -118.5t-68.5 -161.5t-23.5 -173zM452 1174q37 76 87 117.5t132 41.5q37 0 64.5 -12.5t54.5 -28.5q29 -14 49.5 -23t42.5 -9q39 0 64.5 28.5t46.5 59.5l86 -54q-37 -76 -88 -116.5t-131 -40.5q-37 0 -64.5 11t-54.5 28q-29 16 -50.5 24 t-43.5 8q-39 0 -63.5 -27.5t-45.5 -60.5z" />
<glyph unicode="&#xf6;" d="M164 309q0 106 29.5 223t96 215.5t171 162t252.5 63.5q152 0 236.5 -88t84.5 -244q0 -106 -29.5 -223t-96 -215.5t-171.5 -162t-252 -63.5q-152 0 -236.5 88.5t-84.5 243.5zM334 324q0 -92 41 -143.5t139 -51.5q82 0 147.5 46t110.5 118t68.5 161t23.5 173q0 92 -41 144 t-139 52q-82 0 -147.5 -46t-110.5 -118.5t-68.5 -161.5t-23.5 -173zM506 1221q0 53 36.5 86.5t77.5 33.5t70 -25.5t29 -70.5q0 -53 -38 -86t-79 -33t-68.5 26t-27.5 69zM854 1221q0 53 35.5 86.5t78.5 33.5q41 0 69 -25.5t28 -70.5q0 -53 -37 -86t-80 -33q-41 0 -67.5 26 t-26.5 69z" />
<glyph unicode="&#xf7;" d="M180 467l33 143h821l-35 -143h-819zM426 174q0 57 42 103.5t105 46.5q47 0 73 -30t26 -73q0 -25 -10.5 -51.5t-30 -48t-46 -34.5t-57.5 -13q-47 0 -74.5 29.5t-27.5 70.5zM545 854q0 59 43 103t104 44q47 0 73 -28.5t26 -71.5q0 -27 -10.5 -53.5t-29 -48t-45 -34.5 t-59.5 -13q-49 0 -75.5 29.5t-26.5 72.5z" />
<glyph unicode="&#xf8;" d="M59 14l136 136q-31 70 -31 159q0 106 29.5 223t96 215.5t171 162t252.5 63.5q139 0 221 -76l117 119l88 -80l-135 -137q14 -33 22 -72t8 -86q0 -106 -29.5 -223t-96 -215.5t-171 -162t-252.5 -63.5q-141 0 -223 76l-117 -119zM326 304.5q0 -9.5 2 -19.5l491 495 q-43 43 -135 43q-82 0 -148.5 -46t-112.5 -118.5t-71.5 -161.5t-25.5 -173v-19.5zM377 168q49 -39 137 -39q82 0 148.5 46t112.5 118t71.5 161t25.5 173q0 10 -1 19t-1 20z" />
<glyph unicode="&#xf9;" d="M172 276q0 47 8 94.5t19 94.5l116 485h170l-108 -448q-10 -43 -23.5 -99.5t-13.5 -113.5q0 -33 6 -62.5t22.5 -53t45 -37t73.5 -13.5q78 0 139.5 33.5t100.5 79.5q2 29 5 60.5t13 68.5l142 585h168l-144 -600q-10 -43 -16 -82t-6 -82t7 -84t26 -92l-150 -20 q-10 20 -19.5 45.5t-13.5 54.5q-41 -37 -110.5 -73.5t-173.5 -36.5q-80 0 -133.5 23.5t-87 63t-48 94t-14.5 115.5zM502 1311l122 104l234 -293l-90 -80z" />
<glyph unicode="&#xfa;" d="M172 276q0 47 8 94.5t19 94.5l116 485h170l-108 -448q-10 -43 -23.5 -99.5t-13.5 -113.5q0 -33 6 -62.5t22.5 -53t45 -37t73.5 -13.5q78 0 139.5 33.5t100.5 79.5q2 29 5 60.5t13 68.5l142 585h168l-144 -600q-10 -43 -16 -82t-6 -82t7 -84t26 -92l-150 -20 q-10 20 -19.5 45.5t-13.5 54.5q-41 -37 -110.5 -73.5t-173.5 -36.5q-80 0 -133.5 23.5t-87 63t-48 94t-14.5 115.5zM592 1139l288 276l93 -133l-310 -233z" />
<glyph unicode="&#xfb;" d="M172 276q0 47 8 94.5t19 94.5l116 485h170l-108 -448q-10 -43 -23.5 -99.5t-13.5 -113.5q0 -33 6 -62.5t22.5 -53t45 -37t73.5 -13.5q78 0 139.5 33.5t100.5 79.5q2 29 5 60.5t13 68.5l142 585h168l-144 -600q-10 -43 -16 -82t-6 -82t7 -84t26 -92l-150 -20 q-10 20 -19.5 45.5t-13.5 54.5q-41 -37 -110.5 -73.5t-173.5 -36.5q-80 0 -133.5 23.5t-87 63t-48 94t-14.5 115.5zM484 1153l297 254l192 -270l-80 -76l-145 160l-205 -152z" />
<glyph unicode="&#xfc;" d="M172 276q0 47 8 94.5t19 94.5l116 485h170l-108 -448q-10 -43 -23.5 -99.5t-13.5 -113.5q0 -33 6 -62.5t22.5 -53t45 -37t73.5 -13.5q78 0 139.5 33.5t100.5 79.5q2 29 5 60.5t13 68.5l142 585h168l-144 -600q-10 -43 -16 -82t-6 -82t7 -84t26 -92l-150 -20 q-10 20 -19.5 45.5t-13.5 54.5q-41 -37 -110.5 -73.5t-173.5 -36.5q-80 0 -133.5 23.5t-87 63t-48 94t-14.5 115.5zM459 1221q0 53 36.5 86.5t77.5 33.5t70 -25.5t29 -70.5q0 -53 -38 -86t-79 -33t-68.5 26t-27.5 69zM807 1221q0 53 35.5 86.5t78.5 33.5q41 0 69 -25.5 t28 -70.5q0 -53 -37 -86t-80 -33q-41 0 -67.5 26t-26.5 69z" />
<glyph unicode="&#xfd;" d="M-37 -303l60 139q16 -16 47.5 -25.5t70.5 -9.5q106 0 178 43t142 144q-68 223 -119 466.5t-61 495.5h172q2 -82 12 -180t27.5 -202.5t40 -211t47.5 -202.5q70 111 126 228.5t99 225t72.5 197.5t42.5 145h178q-20 -70 -57 -173t-89.5 -223t-118 -246t-141.5 -238 q-57 -86 -115.5 -162t-125 -132.5t-147.5 -88t-181 -31.5q-51 0 -94 12.5t-66 28.5zM590 1139l288 276l93 -133l-310 -233z" />
<glyph unicode="&#xfe;" d="M37 -338l416 1729l174 28l-119 -506q66 41 127 50.5t100 9.5q72 0 128.5 -25.5t94 -69.5t57 -105.5t19.5 -133.5q0 -127 -41 -246t-121.5 -211t-201.5 -147t-283 -55q-20 0 -53 2t-51 6l-78 -326h-168zM317 137q18 -4 49 -7t52 -3q98 0 180 41t141.5 108.5t93 156.5 t33.5 185q0 41 -9 79t-30.5 68t-56.5 47t-86 17q-45 0 -103.5 -15t-113.5 -56z" />
<glyph unicode="&#xff;" d="M-37 -303l60 139q16 -16 47.5 -25.5t70.5 -9.5q106 0 178 43t142 144q-68 223 -119 466.5t-61 495.5h172q2 -82 12 -180t27.5 -202.5t40 -211t47.5 -202.5q70 111 126 228.5t99 225t72.5 197.5t42.5 145h178q-20 -70 -57 -173t-89.5 -223t-118 -246t-141.5 -238 q-57 -86 -115.5 -162t-125 -132.5t-147.5 -88t-181 -31.5q-51 0 -94 12.5t-66 28.5zM457 1221q0 53 36.5 86.5t77.5 33.5t70 -25.5t29 -70.5q0 -53 -38 -86t-79 -33t-68.5 26t-27.5 69zM805 1221q0 53 35.5 86.5t78.5 33.5q41 0 69 -25.5t28 -70.5q0 -53 -37 -86t-80 -33 q-41 0 -67.5 26t-26.5 69z" />
<glyph unicode="&#x152;" d="M125 379q0 135 35 292.5t107.5 293t186 225.5t271.5 90q25 0 53.5 -4t57.5 -8h395l-35 -144h-262l-92 -389h213l-35 -143h-213l-109 -449h289l-35 -143h-422q-61 -12 -116 -12q-76 0 -130.5 28.5t-90 81t-52 124t-16.5 157.5zM295 389q0 -115 37 -185.5t117 -70.5 q41 0 63.5 6t26.5 8l233 973q-23 6 -43 10.5t-41 4.5q-63 0 -117.5 -34t-98.5 -90.5t-77 -131t-55.5 -157.5t-33.5 -169t-11 -164z" />
<glyph unicode="&#x153;" d="M113 307q0 115 26.5 233.5t78.5 215t128 157t174 60.5q45 0 76 -13.5t52.5 -35t34.5 -47t24 -48.5q47 68 106 106t145 38q72 0 124.5 -51.5t52.5 -161.5q0 -63 -24 -128t-75 -119t-132 -93t-195 -51q-2 -8 -3 -19.5t-1 -34.5q0 -98 22.5 -143t79.5 -45q63 0 147 47 l17 -131q-41 -31 -97.5 -49.5t-107.5 -18.5q-66 0 -120 48.5t-64 117.5q-43 -82 -107.5 -124t-142.5 -42q-117 0 -168 90.5t-51 241.5zM283 264q0 -63 19.5 -103t49.5 -40q33 0 71 36t70.5 107.5t55 178t22.5 247.5q0 61 -20.5 101t-50.5 40q-33 0 -71 -35.5t-70.5 -106.5 t-54 -177.5t-21.5 -247.5zM725 510q68 2 116 23.5t76.5 52t42 68.5t13.5 75q0 51 -17.5 75.5t-46.5 24.5q-47 0 -101 -78.5t-83 -240.5z" />
<glyph unicode="&#x178;" d="M301 1268h168q18 -166 63.5 -343t92.5 -325q61 80 124.5 166t124 173t115.5 171t103 158h182q-123 -201 -273.5 -398.5t-316.5 -394.5l-115 -475h-168l113 471q-76 205 -130 400.5t-83 396.5zM547 1506q0 53 36.5 86.5t77.5 33.5t70 -25.5t29 -70.5q0 -53 -38 -86 t-79 -33t-68.5 26t-27.5 69zM895 1506q0 53 35.5 86.5t78.5 33.5q41 0 69 -25.5t28 -70.5q0 -53 -37 -86t-80 -33q-41 0 -67.5 26t-26.5 69z" />
<glyph unicode="&#x2c6;" d="M498 1153l297 254l192 -270l-80 -76l-145 160l-205 -152z" />
<glyph unicode="&#x2dc;" d="M434 1174q37 76 87 117.5t132 41.5q37 0 64.5 -12.5t54.5 -28.5q29 -14 49.5 -23t42.5 -9q39 0 64.5 28.5t46.5 59.5l86 -54q-37 -76 -88 -116.5t-131 -40.5q-37 0 -64.5 11t-54.5 28q-29 16 -50.5 24t-43.5 8q-39 0 -63.5 -27.5t-45.5 -60.5z" />
<glyph unicode="&#x2000;" horiz-adv-x="850" />
<glyph unicode="&#x2001;" horiz-adv-x="1700" />
<glyph unicode="&#x2002;" horiz-adv-x="850" />
<glyph unicode="&#x2003;" horiz-adv-x="1700" />
<glyph unicode="&#x2004;" horiz-adv-x="566" />
<glyph unicode="&#x2005;" horiz-adv-x="425" />
<glyph unicode="&#x2006;" horiz-adv-x="283" />
<glyph unicode="&#x2007;" horiz-adv-x="283" />
<glyph unicode="&#x2008;" horiz-adv-x="212" />
<glyph unicode="&#x2009;" horiz-adv-x="340" />
<glyph unicode="&#x200a;" horiz-adv-x="94" />
<glyph unicode="&#x2010;" d="M360 440l39 160h449l-37 -160h-451z" />
<glyph unicode="&#x2011;" d="M360 440l39 160h449l-37 -160h-451z" />
<glyph unicode="&#x2012;" d="M360 440l39 160h449l-37 -160h-451z" />
<glyph unicode="&#x2013;" d="M205 483l35 144h743l-35 -144h-743z" />
<glyph unicode="&#x2014;" d="M74 483l32 144h1024l-34 -144h-1022z" />
<glyph unicode="&#x2018;" d="M543 1042q0 57 25.5 124t77.5 126.5t134 103.5t195 58l14 -131q-35 -4 -72.5 -14.5t-71.5 -27.5t-62 -43.5t-40 -63.5q51 -8 78 -47.5t27 -88.5q0 -70 -44 -117t-120 -47q-70 0 -105.5 48.5t-35.5 119.5z" />
<glyph unicode="&#x2019;" d="M487 999q35 4 72 14.5t71 28t61.5 44t39.5 63.5q-49 8 -76.5 47t-27.5 88q0 70 45 117t121 47q68 0 103.5 -48t35.5 -120q0 -59 -24.5 -124.5t-77 -125t-134.5 -103.5t-194 -59z" />
<glyph unicode="&#x201a;" d="M215 -162q35 2 75 12.5t75.5 28t64.5 43t41 62.5q-57 8 -86 48t-29 89q0 70 44 117t122 47q68 0 104 -48.5t36 -119.5q0 -59 -25 -125t-77 -125.5t-134 -103.5t-195 -58z" />
<glyph unicode="&#x201c;" d="M317 1071q0 51 22.5 106.5t66 104.5t109 86t151.5 51l28 -119q-35 -8 -66.5 -15t-59 -21.5t-49 -36t-34.5 -58.5q55 -4 85 -45t30 -90q0 -51 -34 -93t-101 -42q-59 0 -103.5 41t-44.5 131zM795 1071q0 51 21.5 106.5t65.5 104.5t108.5 86t150.5 51l30 -119 q-35 -8 -67.5 -15t-60 -21.5t-49 -36t-33.5 -58.5q55 -4 84.5 -45t29.5 -90q0 -51 -32.5 -93t-102.5 -42q-59 0 -102 41t-43 131z" />
<glyph unicode="&#x201d;" d="M291 1018q35 6 66.5 14t59 21.5t50 36t35.5 59.5q-57 4 -87 45t-30 88q0 51 34 93t103 42q59 0 102.5 -41t43.5 -131q0 -51 -21.5 -106.5t-65.5 -104.5t-109.5 -86t-152.5 -51zM766 1018q35 6 66.5 14t59.5 21.5t50.5 36t34.5 59.5q-57 4 -86 45t-29 88q0 51 33 93 t102 42q59 0 102.5 -41t43.5 -131q0 -51 -21.5 -106.5t-65.5 -104.5t-109.5 -86t-151.5 -51z" />
<glyph unicode="&#x201e;" d="M63 -152q70 14 127.5 37t83.5 95q-57 4 -85.5 45t-28.5 88q0 51 32.5 93t102.5 42q59 0 102 -40t43 -130q0 -51 -21.5 -106.5t-65.5 -104.5t-108.5 -86t-150.5 -51zM539 -152q70 14 127 37t84 95q-55 4 -85 45t-30 88q0 51 32.5 93t102.5 42q59 0 102 -40t43 -130 q0 -51 -21.5 -106.5t-65.5 -104.5t-108.5 -86t-150.5 -51z" />
<glyph unicode="&#x2022;" d="M338 586q0 57 19.5 110.5t55.5 94t87 64.5t116 24q63 0 115.5 -24t88.5 -64.5t55.5 -94t19.5 -110.5q0 -59 -19.5 -112.5t-55.5 -93.5t-88 -63.5t-116 -23.5q-66 0 -116.5 23.5t-86.5 63.5t-55.5 93t-19.5 113z" />
<glyph unicode="&#x2026;" d="M49 72q0 59 34 92t81 33q41 0 69.5 -26t28.5 -75q0 -55 -37 -88t-80 -33q-41 0 -68.5 25t-27.5 72zM389 72q0 59 34 92t81 33q41 0 69.5 -26t28.5 -75q0 -55 -37 -88t-80 -33q-41 0 -68.5 25t-27.5 72zM733 72q0 59 34 92t81 33q41 0 69.5 -26t28.5 -75q0 -55 -37 -88 t-80 -33q-41 0 -68.5 25t-27.5 72z" />
<glyph unicode="&#x202f;" horiz-adv-x="340" />
<glyph unicode="&#x2039;" d="M381 530l371 394l106 -64l-287 -348l138 -344l-113 -53z" />
<glyph unicode="&#x203a;" d="M334 182l287 348l-140 344l113 54l217 -416l-373 -393z" />
<glyph unicode="&#x205f;" horiz-adv-x="425" />
<glyph unicode="&#x20ac;" d="M117 416l30 131h148q4 45 14 91t23 93h-142l31 131h154q37 90 90 168t126 136.5t165 91t207 32.5q72 0 122 -10t97 -31l-68 -137q-29 16 -65.5 25.5t-108.5 9.5t-130 -21.5t-106.5 -60.5t-86 -90t-64.5 -113h432l-53 -131h-428q-16 -45 -25.5 -92t-13.5 -92h393l-51 -131 h-354v-33q0 -78 19.5 -128t52 -79t77.5 -41t96 -12q84 0 141.5 14.5t102.5 36.5l6 -145q-12 -6 -39.5 -15.5t-64.5 -17.5t-80 -14.5t-86 -6.5q-193 0 -293 99.5t-100 298.5v43h-168z" />
<glyph unicode="&#x2122;" d="M240 1165v103h383v-103h-134v-434h-118v434h-131zM659 731q6 102 12.5 178t13.5 137.5t14.5 113.5t17.5 108h110l91 -279l98 279h108q10 -55 17.5 -108.5t13.5 -115t11 -137.5t12 -176h-119q0 8 -1 53t-2 103.5t-2 120t-3 102.5l-88 -238h-93l-79 238q-4 -41 -6.5 -102.5 t-3.5 -120t-2 -103.5t-1 -53h-119z" />
<glyph unicode="&#xe000;" horiz-adv-x="952" d="M0 0v952h952v-952h-952z" />
<glyph unicode="&#xfb01;" d="M-188 -311l38 141q43 -27 119 -27q82 0 127 63.5t68 168.5l164 774h-111l31 141h110l23 101q25 113 62.5 184.5t84.5 112.5t104.5 56t119.5 15q41 0 78.5 -9t84.5 -26l-67 -135q-29 14 -56.5 19.5t-54.5 5.5q-88 0 -127 -60.5t-61 -162.5l-23 -101h256l-34 -141h-250 l-164 -772q-23 -102 -53.5 -175t-75.5 -119t-109.5 -66.5t-152.5 -20.5q-31 0 -70 8t-61 25zM700 0l230 950h168l-230 -950h-168zM969 1221q0 59 36.5 92t81.5 33q43 0 72 -27t29 -74q0 -55 -38 -89t-81 -34t-71.5 26t-28.5 73z" />
<glyph unicode="&#xfb02;" d="M-188 -311l38 141q43 -27 119 -27q82 0 127 63.5t68 168.5l164 774h-111l31 141h110l23 101q25 113 62.5 184.5t84.5 112.5t104.5 56t119.5 15q41 0 78.5 -9t84.5 -26l-67 -135q-29 14 -56.5 19.5t-54.5 5.5q-88 0 -127 -60.5t-61 -162.5l-23 -101h256l-34 -141h-250 l-164 -772q-23 -102 -53.5 -175t-75.5 -119t-109.5 -66.5t-152.5 -20.5q-31 0 -70 8t-61 25zM752 248q0 43 7 89t19 95l232 959l176 28l-240 -1001q-10 -39 -19 -78t-9 -74q0 -53 23.5 -91t86.5 -48l-39 -143q-66 4 -110.5 26.5t-72.5 57t-41 81t-13 99.5z" />
</font>
</defs>
</svg>
